Укрытие / Take Shelter (Джефф Николс / Jeff Nichols) [2011, США, драма, HDRip] MVO (Лицензия)

Ответить на тему
 
Автор Сообщение

user ®

Стаж: 7 лет 7 месяцев

Сообщений: 20008

Пост Пост: #1 от 31-Май-2012 10:19

[Цитировать]

Укрытие / TAKE SHELTER
«Безумец или пророк?»
-Страна: США
Студия: Grove Hill Productions, Hydraulx, Strange Matter Films
Жанр: драма
Год выпуска: 2011
Продолжительность: 02:01:05-Перевод: профессиональный (многоголосый закадровый) лицензия
Субтитры: нет-Режиссёр: Джефф Николс / Jeff Nichols-В ролях: Майкл Шеннон, Джессика Честейн, Това Стюарт, Ши Уигхэм, Кэти Миксон, Наташа Рэндолл, Рон Кеннард, Роберт Лонгстрит, Хезер Колдуэлл, Марианна Алаччи, Жак Йович, Боб Мейнс, Чарльз Мур, Пит Ферри, Молли Макгиннис, Изабелль Смит, Тина Стамп, Кен Штрунк, Марианн Нэйджел, Хейли Дикенс, Кэти Бейкер, Гай Ван Сверинген, Лиза Гэй Хэмилтон, Уильям Александр.-Описание:
Измученный апокалиптическими видениями главный герой, молодой муж и отец, должен понять, защищать ли ему свою семью от приближающегося шторма, или от самого себя…
-7.6/10 (20361) 7.378 (1335)-Качество видео: HDRip (Исходник видео)
Формат файла: AVI
Видео: XviD, 720x304 (2.35:1), 23.976 fps, 1336 kbps avg, 0.255 bit/pixel
Аудио: 48 kHz, AC3 Dolby Digital, 3/2 (L,C,R,l,r) + LFE ch, 384 kbps avg (Rus MVO)-

MediaInfo

Общее
Полное имя : D:\Ukritie.2011.MVO.XviD.AC3.HDRip._by.ZNG505_.avi
Формат : AVI
Формат/Информация : Audio Video Interleave
Размер файла : 1,46 Гбайт
Продолжительность : 2 ч. 1 м.
Общий поток : 1729 Кбит/сек
Программа кодирования : VirtualDubModRus 1.5.10.2 (build 2542/release)
Библиотека кодирования : VirtualDubMod build 2542/release
Видео
Идентификатор : 0
Формат : MPEG-4 Visual
Профиль формата : Advanced Simple@L5
Параметр BVOP формата : 2
Параметр QPel формата : Нет
Параметр GMC формата : Без точки перехода
Параметр матрицы формата : Выборочная
Идентификатор кодека : XVID
Идентификатор кодека/Подсказка : XviD
Продолжительность : 2 ч. 1 м.
Битрейт : 1336 Кбит/сек
Ширина : 720 пикселей
Высота : 304 пикселя
Соотношение сторон : 2,35:1
Частота кадров : 23,976 кадра/сек
Цветовое пространство : YUV
Субдискретизация насыщенности : 4:2:0
Битовая глубина : 8 бит
Тип развёртки : Прогрессивная
Метод сжатия : С потерями
Бит/(Пиксели*Кадры) : 0.255
Размер потока : 1,13 Гбайт (77%)
Библиотека кодирования : XviD 65
Аудио
Идентификатор : 1
Формат : AC-3
Формат/Информация : Audio Coding 3
Расширение режима : CM (complete main)
Идентификатор кодека : 2000
Продолжительность : 2 ч. 1 м.
Вид битрейта : Постоянный
Битрейт : 384 Кбит/сек
Каналы : 6 каналов
Расположение каналов : Front: L C R, Side: L R, LFE
Частота : 48,0 КГц
Битовая глубина : 16 бит
Метод сжатия : С потерями
Размер потока : 333 Мбайт (22%)
Выравнивание : Разделение по промежуткам
Продолжительность промежутка : 42 мс. (1,00 видеокадр)
Время предзагрузки промежутка : 500 мс.
Заголовок : Rus MVO

Скриншот c названием фильма

Скриншоты

Скачать

Скачать торрент!

Как скачивать? · Что такое торрент? · Рейтинг и ограничения

Сайт не распространяет и не хранит электронные версии произведений, а лишь предоставляет доступ к создаваемому пользователями каталогу ссылок на торрент-файлы, которые содержат только списки хеш-сумм

[Профиль] [ЛС]
Показать сообщения:    
Ответить на тему

Текущее время: Сегодня 02:14

Часовой пояс: GMT + 4



Вы не можете начинать темы
Вы не можете отвечать на сообщения
Вы не можете редактировать свои сообщения
Вы не можете удалять свои сообщения
Вы не можете голосовать в опросах
Вы не можете прикреплять файлы к сообщениям
Вы не можете скачивать файлы