DreamScene на тему World of Wacraft и Warcraft 3, 1.0 x86+x64 [2010, ENG]

Ответить на тему
 
Автор Сообщение

user ®

Стаж: 12 лет

Сообщений: 15097

Пост Пост: #1 от 13-Май-2012 00:52

[Цитировать]

DreamScene на тему World of Wacraft и Warcraft 3
Год/Дата Выпуска: 2010
Версия: 1.0
Разработчик: Stardock
Сайт разработчика: http://www.stardock.com/
Разрядность: 32bit+64bit
Язык интерфейса: Английский
Таблэтка: Не требуется
Системные требования: Windows Vista Ultimate или Windows 7 Максимальная.
Наличие видеокарты способной работать с технологией Windows Aero.
Описание: Windows DreamScene позволяет устанавливать на ваш рабочий стол анимированные обои .DREAM и видеоролики форматов .mpg и .wmv
В этой раздаче видеоролики из World of Warcraft. В одном (WOW WOTLK (Login Screen).DREAM) был записан, моим другом mp@k13volk при помощи Fraps, экран входа в мир WOW Wrath of the Lich King с летающим туда-сюда ледяным драконом. Остальные ролики - интро из World Of Warcraft и Warcraft 3.
Доп. информация: Установить такие обои на рабочий стол можно при помощи программы Stardock DeskScapes. Скачать её можно на официальном сайте. Триал-версия бесплатно только на 30 дней, для дальнейшего использования проги прийдётся выложить порядка 600 рублей. По-моему не так уж и много за подобную функцию (PayPal можно оплатить через терминал).

720р

WOW WOTLK (Login Screen)

Записано с помощью Fraps 24-го марта 2010 года из World of Warcraft: Wrath of the Lich King

MediaInfo

Общее
Полное имя : C:\Users\chaos_head\Videos\Wow 2010-05-24 (1280x720).wmv
Формат : Windows Media
Размер файла : 36,7 Мбайт
Продолжительность : 30 с.
Общий поток : 10,1 Мбит/сек
Максимальный общий битрейт : 10,3 Мбит/сек
Дата кодирования : UTC 1970-01-01 00:00:00.000
creation_time : 2011-11-07 21:43:34
WM/EncodingSettings : Lavf53.10.0
Видео
Идентификатор : 1
Формат : WMV2
Идентификатор кодека : WMV2
Идентификатор кодека/Информация : Windows Media Video 8
Описание кодека : wmv2
Битрейт : 9397 Кбит/сек
Ширина : 1280 пикселей
Высота : 720 пикселей
Соотношение сторон : 16:9
Битовая глубина : 8 бит
Аудио
Идентификатор : 2
Формат : WMA
Версия формата : Version 2
Идентификатор кодека : 161
Идентификатор кодека/Информация : Windows Media Audio
Описание кодека : Windows Media Audio V8
Продолжительность : 30 с.
Битрейт : 320 Кбит/сек
Каналы : 2 канала
Частота : 44,1 КГц
Битовая глубина : 16 бит
Размер потока : 1,16 Мбайт (3%)

WOW WOTLK

Интро Wrath of the Lich King

MediaInfo

Общее
Полное имя : D:\Temp\WoW DreamScene\WOTLK_WEB_1280_Xvid_RU.wmv
Формат : Windows Media
Размер файла : 124 Мбайт
Продолжительность : 3 м. 18 с.
Режим общего битрейта : Постоянный
Общий поток : 5257 Кбит/сек
Максимальный общий битрейт : 6707 Кбит/сек
Дата кодирования : UTC 2011-01-29 12:39:35.651
Видео
Идентификатор : 2
Формат : VC-1
Профиль формата : MP@HL
Идентификатор кодека : WMV3
Идентификатор кодека/Информация : Windows Media Video 9
Идентификатор кодека/Подсказка : WMV3
Описание кодека : Windows Media Video 9 - Professional
Продолжительность : 3 м. 18 с.
Вид битрейта : Постоянный
Битрейт : 6495 Кбит/сек
Ширина : 1280 пикс.
Высота : 544 пикс.
Соотношение сторон : 2,35:1
Частота кадров : 24,000 кадр/сек
Битовая глубина : 8 бит
Тип развёртки : Прогрессивная
Метод сжатия : С потерями
Бит/(Пиксели*Кадры) : 0.389
Размер потока : 153 Мбайт
Язык : Russian
Аудио
Идентификатор : 1
Формат : WMA
Версия формата : Version 2
Идентификатор кодека : 161
Идентификатор кодека/Информация : Windows Media Audio
Описание кодека : Windows Media Audio 9.2 - 160 kbps, 44 kHz, stereo 1-pass CBR
Продолжительность : 3 м. 18 с.
Вид битрейта : Постоянный
Битрейт : 160 Кбит/сек
Канал(ы) : 2 канала(ов)
Частота : 44,1 КГц
Битовая глубина : 16 бит
Размер потока : 3,78 Мбайт (3%)
Язык : Russian

World of Warcraft - Classic

Интро классического WOW без звука и немного урезанное

MediaInfo

Общее
Полное имя : C:\Users\chaos_head\Videos\WOW_no_logo_Ru_RU.wmv
Формат : Windows Media
Размер файла : 120 Мбайт
Продолжительность : 2 м. 3 с.
Общий поток : 8160 Кбит/сек
Максимальный общий битрейт : 8000 Кбит/сек
Дата кодирования : UTC 1970-01-01 00:00:00.000
creation_time : 2009-07-28 21:04:11
WM/EncodingSettings : Lavf53.10.0
Видео
Идентификатор : 1
Формат : WMV2
Идентификатор кодека : WMV2
Идентификатор кодека/Информация : Windows Media Video 8
Описание кодека : wmv2
Битрейт : 7830 Кбит/сек
Ширина : 1280 пикселей
Высота : 544 пикселя
Соотношение сторон : 2,35:1
Битовая глубина : 8 бит

World of Warcraft - The Burning Curusade

Интро WOW The Burning Curusade

MediaInfo

Общее
Полное имя : C:\Users\chaos_head\Videos\WOW tBK (1280x544).wmv
Формат : Windows Media
Размер файла : 111 Мбайт
Продолжительность : 2 м. 47 с.
Общий поток : 5558 Кбит/сек
Максимальный общий битрейт : 8320 Кбит/сек
Дата кодирования : UTC 1970-01-01 00:00:00.000
creation_time : 2009-07-31 18:09:54
WM/EncodingSettings : Lavf53.10.0
Видео
Идентификатор : 1
Формат : WMV2
Идентификатор кодека : WMV2
Идентификатор кодека/Информация : Windows Media Video 8
Описание кодека : wmv2
Продолжительность : 2 м. 47 с.
Битрейт : 5009 Кбит/сек
Ширина : 1280 пикселей
Высота : 544 пикселя
Соотношение сторон : 2,35:1
Частота кадров : 23,976 кадра/сек
Битовая глубина : 8 бит
Бит/(Пиксели*Кадры) : 0.300
Размер потока : 100 Мбайт (90%)
Аудио
Идентификатор : 2
Формат : WMA
Версия формата : Version 2
Идентификатор кодека : 161
Идентификатор кодека/Информация : Windows Media Audio
Описание кодека : Windows Media Audio V8
Продолжительность : 2 м. 47 с.
Битрейт : 320 Кбит/сек
Каналы : 2 канала
Частота : 44,1 КГц
Битовая глубина : 16 бит
Размер потока : 6,40 Мбайт (6%)

World of Warcraft - Cataclysm

Интро WOW Cataclysm

MediaInfo

Общее
Полное имя : D:\Temp\WoW DreamScene\World of Warcraft - Cataclysm.wmv
Формат : Windows Media
Размер файла : 110 Мбайт
Продолжительность : 2 м. 23 с.
Общий поток : 6457 Кбит/сек
Максимальный общий битрейт : 6660 Кбит/сек
Дата кодирования : UTC 1970-01-01 00:00:00.000
creation_time : 2011-09-04 02:55:35
duration : 143
width : 1280
height : 544
videodatarate : 2500
framerate : 24
videocodecid : 4
audiodatarate : 160
audiodelay : 0
audiocodecid : 2
canSeekToEnd : true
WM/EncodingSettings : Lavf53.10.0
Видео
Идентификатор : 1
Формат : WMV2
Идентификатор кодека : WMV2
Идентификатор кодека/Информация : Windows Media Video 8
Описание кодека : wmv2
Продолжительность : 2 м. 23 с.
Битрейт : 6033 Кбит/сек
Ширина : 1280 пикс.
Высота : 544 пикс.
Соотношение сторон : 2,35:1
Частота кадров : 23,976 кадр/сек
Битовая глубина : 8 бит
Бит/(Пиксели*Кадры) : 0.361
Размер потока : 103 Мбайт (93%)
Аудио
Идентификатор : 2
Формат : WMA
Версия формата : Version 2
Идентификатор кодека : 161
Идентификатор кодека/Информация : Windows Media Audio
Описание кодека : Windows Media Audio V8
Продолжительность : 2 м. 23 с.
Битрейт : 160 Кбит/сек
Каналы : 2 канала
Частота : 44,1 КГц
Битовая глубина : 16 бит
Размер потока : 2,73 Мбайт (2%)

Warcraft 3 - The Frozen Throne

MediaInfo

Общее
Полное имя : D:\Temp\WoW DreamScene\720p\War3X_Intro_1280x582_no_logo_Ru_RU.wmv
Формат : Windows Media
Размер файла : 68,9 Мбайт
Продолжительность : 3 м. 8 с.
Режим общего битрейта : Постоянный
Общий поток : 3062 Кбит/сек
Максимальный общий битрейт : 6192 Кбит/сек
Дата кодирования : UTC 1970-01-01 00:00:00.000
Видео
Идентификатор : 1
Формат : WMV2
Идентификатор кодека : WMV2
Идентификатор кодека/Информация : Windows Media Video 8
Описание кодека : wmv2
Продолжительность : 3 м. 8 с.
Вид битрейта : Постоянный
Битрейт : 6000 Кбит/сек
Ширина : 1280 пикс.
Высота : 582 пикс.
Соотношение сторон : 2,2:1
Частота кадров : 29,970 кадр/сек
Битовая глубина : 8 бит
Бит/(Пиксели*Кадры) : 0.269
Размер потока : 135 Мбайт
Язык : English (US)
Аудио
Идентификатор : 2
Формат : WMA
Версия формата : Version 2
Идентификатор кодека : 161
Идентификатор кодека/Информация : Windows Media Audio
Описание кодека : Windows Media Audio V8
Продолжительность : 3 м. 8 с.
Вид битрейта : Постоянный
Битрейт : 192 Кбит/сек
Каналы : 2 канала
Частота : 48,0 КГц
Битовая глубина : 16 бит
Размер потока : 4,32 Мбайт (6%)
Язык : English (US)

Warcraft 3 - Reign of Chaos

MediaInfo

Общее
Полное имя : D:\Temp\WoW DreamScene\720p\War3_Act1_1280x582_no_logo_Ru_RU.wmv
Формат : Windows Media
Размер файла : 132 Мбайт
Продолжительность : 2 м. 54 с.
Режим общего битрейта : Постоянный
Общий поток : 6314 Кбит/сек
Максимальный общий битрейт : 7192 Кбит/сек
Дата кодирования : UTC 1970-01-01 00:00:00.000
Видео
Идентификатор : 1
Формат : WMV2
Идентификатор кодека : WMV2
Идентификатор кодека/Информация : Windows Media Video 8
Описание кодека : wmv2
Продолжительность : 2 м. 54 с.
Вид битрейта : Постоянный
Битрейт : 7000 Кбит/сек
Ширина : 1280 пикс.
Высота : 582 пикс.
Соотношение сторон : 2,2:1
Частота кадров : 29,970 кадр/сек
Битовая глубина : 8 бит
Бит/(Пиксели*Кадры) : 0.314
Размер потока : 146 Мбайт
Язык : English (US)
Аудио
Идентификатор : 2
Формат : WMA
Версия формата : Version 2
Идентификатор кодека : 161
Идентификатор кодека/Информация : Windows Media Audio
Описание кодека : Windows Media Audio V8
Продолжительность : 2 м. 54 с.
Вид битрейта : Постоянный
Битрейт : 192 Кбит/сек
Каналы : 2 канала
Частота : 48,0 КГц
Битовая глубина : 16 бит
Размер потока : 4,00 Мбайт (3%)
Язык : English (US)

1080р

WOW WOTLK (Login Screen)

Записано с помощью Fraps 24-го марта 2010 года из World of Warcraft: Wrath of the Lich King

MediaInfo

Общее
Полное имя : C:\Users\chaos_head\Videos\Wow 2010-05-02 21-48-57-96.wmv
Формат : Windows Media
Размер файла : 58,6 Мбайт
Продолжительность : 30 с.
Общий поток : 16,2 Мбит/сек
Максимальный общий битрейт : 15,3 Мбит/сек
Дата кодирования : UTC 1970-01-01 00:00:00.000
creation_time : 2011-11-07 21:35:46
WM/EncodingSettings : Lavf53.10.0
Видео
Идентификатор : 1
Формат : WMV2
Идентификатор кодека : WMV2
Идентификатор кодека/Информация : Windows Media Video 8
Описание кодека : wmv2
Битрейт : 15,2 Мбит/сек
Ширина : 1920 пикселей
Высота : 1080 пикселей
Соотношение сторон : 16:9
Битовая глубина : 8 бит
Аудио
Идентификатор : 2
Формат : WMA
Версия формата : Version 2
Идентификатор кодека : 161
Идентификатор кодека/Информация : Windows Media Audio
Описание кодека : Windows Media Audio V8
Продолжительность : 30 с.
Битрейт : 320 Кбит/сек
Каналы : 2 канала
Частота : 44,1 КГц
Битовая глубина : 16 бит
Размер потока : 1,16 Мбайт (2%)

WOW Wrath of the Lich King

Интро Wrath of the Lich King

MediaInfo

Общее
Полное имя : D:\Temp\WoW DreamScene\1080p\WOWX2_Intro_1920x816_PEGI_12_RU.wmv
Формат : Windows Media
Размер файла : 243 Мбайт
Продолжительность : 3 м. 18 с.
Режим общего битрейта : Постоянный
Общий поток : 10,3 Мбит/сек
Максимальный общий битрейт : 10,2 Мбит/сек
Дата кодирования : UTC 1970-01-01 00:00:00.000
Видео
Идентификатор : 1
Формат : WMV2
Идентификатор кодека : WMV2
Идентификатор кодека/Информация : Windows Media Video 8
Описание кодека : wmv2
Продолжительность : 3 м. 18 с.
Вид битрейта : Постоянный
Битрейт : 10000 Кбит/сек
Ширина : 1920 пикс.
Высота : 816 пикс.
Соотношение сторон : 2,35:1
Частота кадров : 29,970 кадр/сек
Битовая глубина : 8 бит
Бит/(Пиксели*Кадры) : 0.213
Размер потока : 236 Мбайт (97%)
Язык : English (US)
Аудио
Идентификатор : 2
Формат : WMA
Версия формата : Version 2
Идентификатор кодека : 161
Идентификатор кодека/Информация : Windows Media Audio
Описание кодека : Windows Media Audio V8
Продолжительность : 3 м. 18 с.
Вид битрейта : Постоянный
Битрейт : 160 Кбит/сек
Каналы : 2 канала
Частота : 48,0 КГц
Битовая глубина : 16 бит
Размер потока : 3,78 Мбайт (2%)
Язык : English (US)

WOW Classic

Интро классического WoW без звука и немного урезанное

MediaInfo

Общее
Полное имя : C:\Users\chaos_head\Videos\WOW_1920x816_no_logo_Ru_RU_2.wmv
Формат : Windows Media
Размер файла : 121 Мбайт
Продолжительность : 2 м. 3 с.
Общий поток : 8202 Кбит/сек
Максимальный общий битрейт : 8000 Кбит/сек
Дата кодирования : UTC 1970-01-01 00:00:00.000
creation_time : 2009-07-28 21:04:11
WM/EncodingSettings : Lavf53.10.0
Видео
Идентификатор : 1
Формат : WMV2
Идентификатор кодека : WMV2
Идентификатор кодека/Информация : Windows Media Video 8
Описание кодека : wmv2
Битрейт : 7870 Кбит/сек
Ширина : 1920 пикселей
Высота : 816 пикселей
Соотношение сторон : 2,35:1
Битовая глубина : 8 бит

WOW The Burning Curusade

Интро WOW The Burning Curusade

MediaInfo

Общее
Полное имя : D:\Temp\WoW DreamScene\1080p\WOWX1_Intro_1920x816_no_logo_Ru_RU.wmv
Формат : Windows Media
Размер файла : 206 Мбайт
Продолжительность : 2 м. 47 с.
Режим общего битрейта : Постоянный
Общий поток : 10,3 Мбит/сек
Максимальный общий битрейт : 10,3 Мбит/сек
Дата кодирования : UTC 1970-01-01 00:00:00.000
Видео
Идентификатор : 1
Формат : WMV2
Идентификатор кодека : WMV2
Идентификатор кодека/Информация : Windows Media Video 8
Описание кодека : wmv2
Продолжительность : 2 м. 47 с.
Вид битрейта : Постоянный
Битрейт : 10000 Кбит/сек
Ширина : 1920 пикс.
Высота : 816 пикс.
Соотношение сторон : 2,35:1
Частота кадров : 29,970 кадр/сек
Битовая глубина : 8 бит
Бит/(Пиксели*Кадры) : 0.213
Размер потока : 200 Мбайт (97%)
Язык : English (US)
Аудио
Идентификатор : 2
Формат : WMA
Версия формата : Version 2
Идентификатор кодека : 161
Идентификатор кодека/Информация : Windows Media Audio
Описание кодека : Windows Media Audio V8
Продолжительность : 2 м. 47 с.
Вид битрейта : Постоянный
Битрейт : 320 Кбит/сек
Каналы : 2 канала
Частота : 48,0 КГц
Битовая глубина : 16 бит
Размер потока : 6,40 Мбайт (3%)
Язык : English (US)
Отключить звук

как отключить звук

1. Устанавливаем дрим-сцену со звуком на рабочий стол
2. Нажимаем правой кнопкой мыши на динамик в трее (около часов, в правом нижнем углу)


3. Выбираем "открыть микшер громкости"

4. Находим в микшере громкости "Deskscapes Configuration" и отключаем звук

P.S.: Если Ваши анимированные обои (Dreamscene) установлены при помощи другой программы, то соответственно ищите в микшере громкости не Deskscapes, а программу, которой Вы установили Dreamscene (то бишь Ваш видеоролик) на рабочий стол.
Скрин Deskscapes 3:

Скриншот окна About

Скачать

Скачать торрент! DreamScene на тему World of Wacraft и Warcraft 3, 1.0 x86+x64 [2010, ENG]

Как скачивать? · Что такое торрент? · Рейтинг и ограничения

Сайт не распространяет и не хранит электронные версии произведений, а лишь предоставляет доступ к создаваемому пользователями каталогу ссылок на торрент-файлы, которые содержат только списки хеш-сумм

[Профиль] [ЛС]
Показать сообщения:    
Ответить на тему

Текущее время: Сегодня 07:43

Часовой пояс: GMT + 4



Вы не можете начинать темы
Вы не можете отвечать на сообщения
Вы не можете редактировать свои сообщения
Вы не можете удалять свои сообщения
Вы не можете голосовать в опросах
Вы не можете прикреплять файлы к сообщениям
Вы не можете скачивать файлы