Неадекватные люди (Роман Каримов) [2010, мелодрама, комедия, BDRip-AVC]

Ответить на тему
 
Автор Сообщение

user ®

Стаж: 7 лет 7 месяцев

Сообщений: 20008

Пост Пост: #1 от 07-Май-2012 00:29

[Цитировать]

Неадекватные люди / Neadekvatnye lyudi«Биться головой о стенку гораздо веселее, когда знаешь, что за ней скрывается родственная душа.» -
Страна: Россия
Жанр: мелодрама, комедия
Год выпуска: 2010
Продолжительность: 01:46:15
Cубтитры Английские-Режиссер: Роман Каримов-В ролях: Илья Любимов, Ингрид Олеринская, Евгений Цыганов, Юлия Такшина, Артем Душкин, Полина Иосилевич, Марина Зайцева, Анастасия Федоркова, Назар Ас-Самаррай, Анна Колобаева-Описание:
Тихий и воспитанный Виталик пытается начать жизнь с нуля в новом городе. Но странным образом ему на пути попадаются одни сумасшедшие. Его соседкой по лестничной площадке оказывается взбалмошная Кристина, стремящаяся переделать его из задрота в нормального мужика, на новой работе атакует похотливая начальница и даже психолог, помогающий ему совладать со всем этим - и тот оказывается садо-мазохистом. Виталик кажется единственным адекватным человеком здесь. Но так ли это на самом деле?
- -Качество видео: BDRip | исх. Neadekvatnie.ludi.2010.Blu-ray
Формат видео: MKV-Видео: H.264 / 1062 x 596 / 16:9 / 1512 kbps / 23,976 fps
Аудио: Русский / AC3 Dolby Digital / 48 KHz / 448 kbps / 3/2 (L,C,R,l,r) + LFE ch
Формат субтитров: softsub (SRT)-СЭМПЛ
-Релиз: -

FAQ по просмотру MKV/h.264/AAC

  • [url=http://***/forum/viewtopic.php?p=9255801#1]Смогу ли я запустить AVC фильм на своём компьютере?[/url]
  • [url=http://***/forum/viewtopic.php?p=9255801#2]Сампл из раздачи не воспроизводится/тормозит или отсутствует звук/изображение. Что делать?[/url]
  • [url=http://***/forum/viewtopic.php?p=9255801#3]Что такое H.264/AVC и зачем он нужен?[/url]
  • [url=http://***/forum/viewtopic.php?p=9255801#4]Что за дурацкий формат .MKV?[/url]
  • [url=http://***/forum/viewtopic.php?p=9255801#5]Почему MKV? Чем AVI хуже?[/url]
  • [url=http://***/forum/viewtopic.php?p=9255801#6]Не могу переключить/включить/выключить аудио/видео дорожки и/или субтитры. Что делать?[/url]
  • [url=http://***/forum/viewtopic.php?p=9255801#14]Как сделать так, чтобы по умолчанию при просмотре MKV файлов нужные/ненужные субтитры были включены/выключены, и/или сразу проигрывалась дорожка на нужном мне языке?[/url]
  • [url=http://***/forum/viewtopic.php?p=9255801#7]Будут ли фильмы в таком формате проигрываться на бытовых плеерах без компьютера?[/url]
  • [url=http://***/forum/viewtopic.php?p=9255801#8]Проигрываю фильм, а картинка очень сильно отличается от скринов/бледная/перенасыщенная. Что не так?[/url]
  • [url=http://***/forum/viewtopic.php?p=9255801#9]Можно ли сконвертировать AVC в DVD?[/url]
  • [url=http://***/forum/viewtopic.php?p=9255801#10]Почему сплюснута картинка / в характеристиках видео указано два разрешения / что такое анаморфное разрешение?[/url]
  • [url=http://***/forum/viewtopic.php?p=9255801#169]Зачем релизёры обманывают качающих и пишут в заголовке 720p/1080p, а на самом деле раздают видеоматериалы в непонятных разрешениях?[/url]
  • [url=http://***/forum/viewtopic.php?p=9255801#11]Можно ли вывести многоканальный FLAC/AAC-звук на внешний ресивер?[/url]
  • [url=http://***/forum/viewtopic.php?p=9255801#12]У меня 2-канальная акустика/стереонаушники. При просмотре видео почти не слышно/совсем не слышно речь/разговоры, играют только фоновые звуки. Что делать?[/url]
  • [url=http://***/forum/viewtopic.php?p=9255801#coreweightp]У меня стоит CoreAVC версии 1.9.5 или младше. При воспроизведении картинка рассыпается на квадраты и разноцветные пятна. Кривой рип?[/url]

MediaInfo/log

log

avs [info]: 1062x596p 1:1 @ 24000/1001 fps (cfr)
x264 [info]: using SAR=1/1
x264 [info]: using cpu capabilities: MMX2 SSE2Fast SSSE3 FastShuffle SSE4.2 AVX
x264 [info]: profile High, level 4.1
x264 [info]: frame I:937   Avg QP:18.60  size: 46877
x264 [info]: frame P:30646 Avg QP:21.31  size: 15648
x264 [info]: frame B:121288 Avg QP:22.39  size:  5620
x264 [info]: consecutive B-frames:  1.4%  2.1%  6.2% 15.7% 17.4% 42.3%  5.8%  1.6%  2.0%  1.4%  1.0%  0.8%  1.0%  1.0%  0.5%
x264 [info]: mb I  I16..4: 10.5% 75.6% 13.9%
x264 [info]: mb P  I16..4:  2.0%  8.8%  1.3%  P16..4: 47.1% 20.1% 11.4%  0.0%  0.0%    skip: 9.4%
x264 [info]: mb B  I16..4:  0.1%  0.6%  0.1%  B16..8: 42.5%  8.1%  1.5%  direct: 3.8%  skip:43.2%  L0:43.4% L1:48.7% BI: 8.0%
x264 [info]: 8x8 transform intra:73.3% inter:78.2%
x264 [info]: direct mvs  spatial:98.0% temporal:2.0%
x264 [info]: coded y,uvDC,uvAC intra: 72.3% 65.9% 25.4% inter: 15.7% 10.6% 0.4%
x264 [info]: i16 v,h,dc,p: 26% 13%  6% 55%
x264 [info]: i8 v,h,dc,ddl,ddr,vr,hd,vl,hu: 15%  9%  5%  9% 14% 14% 13% 12% 10%
x264 [info]: i4 v,h,dc,ddl,ddr,vr,hd,vl,hu: 26%  7%  3%  8% 14% 13% 12%  9%  9%
x264 [info]: i8c dc,h,v,p: 31% 26% 23% 20%
x264 [info]: Weighted P-Frames: Y:1.7% UV:0.5%
x264 [info]: ref P L0: 46.8% 10.8% 17.0%  5.7%  4.9%  3.6%  3.3%  1.8%  1.7%  1.5%  1.4%  1.4%  0.2%  0.0%
x264 [info]: ref B L0: 73.3% 11.1%  5.5%  2.7%  2.0%  1.7%  1.4%  0.8%  0.8%  0.5%  0.2%
x264 [info]: ref B L1: 92.5%  7.5%
x264 [info]: kb/s:1512.09
General
Unique ID : 188632383166107405813784744635484674674 (0x8DE946889D56265DA80C6C60DC291A72)
Complete name : I:\Other\Neadekvatnye.Lyudi.2010.RUS.BDRip-AVC.AC3.-HQ-ViDEO.mkv
Format : Matroska
Format version : Version 2
File size : 1.46 GiB
Duration : 1h 46mn
Overall bit rate : 1 961 Kbps
Movie name : Neadekvatnye Lyudi / 2010 / Release by Vaippp / HQ-ViDEO
Encoded date : UTC 2011-11-10 05:08:08
Writing application : mkvmerge v5.0.1 ('Es ist Sommer') built on Oct 9 2011 11:55:43
Writing library : libebml v1.2.2 + libmatroska v1.3.0
Video
ID : 1
Format : AVC
Format/Info : Advanced Video Codec
Format profile : High@L4.1
Format settings, CABAC : Yes
Format settings, ReFrames : 12 frames
Codec ID : V_MPEG4/ISO/AVC
Duration : 1h 46mn
Bit rate : 1 512 Kbps
Width : 1 062 pixels
Height : 596 pixels
Display aspect ratio : 16:9
Frame rate : 23.976 fps
Color space : YUV
Chroma subsampling : 4:2:0
Bit depth : 8 bits
Scan type : Progressive
Bits/(Pixel*Frame) : 0.100
Stream size : 1.09 GiB (75%)
Title : BDRip 10/11/2011
Writing library : x264 core 119 r2106 07efeb4
Encoding settings : cabac=1 / ref=12 / deblock=1:-2:-2 / analyse=0x3:0x113 / me=umh / subme=10 / psy=1 / psy_rd=1.10:0.05 / mixed_ref=1 / me_range=48 / chroma_me=1 / trellis=2 / 8x8dct=1 / cqm=0 / deadzone=21,11 / fast_pskip=0 / chroma_qp_offset=-2 / threads=12 / sliced_threads=0 / nr=0 / decimate=1 / interlaced=0 / bluray_compat=0 / constrained_intra=0 / bframes=14 / b_pyramid=2 / b_adapt=2 / b_bias=0 / direct=3 / weightb=1 / open_gop=0 / weightp=2 / keyint=250 / keyint_min=23 / scenecut=40 / intra_refresh=0 / rc_lookahead=40 / rc=2pass / mbtree=0 / bitrate=1512 / ratetol=1.0 / qcomp=0.65 / qpmin=0 / qpmax=69 / qpstep=4 / cplxblur=20.0 / qblur=0.5 / vbv_maxrate=40000 / vbv_bufsize=30000 / nal_hrd=none / ip_ratio=1.40 / pb_ratio=1.30 / aq=2:1.05 / zones=146424,152870,q=35
Language : English
Matrix coefficients : BT.709-5, BT.1361, IEC 61966-2-4 709, SMPTE RP177
Audio
ID : 2
Format : AC-3
Format/Info : Audio Coding 3
Mode extension : CM (complete main)
Codec ID : A_AC3
Duration : 1h 46mn
Bit rate mode : Constant
Bit rate : 448 Kbps
Channel(s) : 6 channels
Channel positions : Front: L C R, Side: L R, LFE
Sampling rate : 48.0 KHz
Bit depth : 16 bits
Compression mode : Lossy
Stream size : 341 MiB (23%)
Title : ORG
Language : Russian
Text
ID : 3
Format : UTF-8
Codec ID : S_TEXT/UTF8
Codec ID/Info : UTF-8 Plain Text
Language : English
Menu
00:00:00.000 : ru:00:00:00.000
00:05:19.569 : ru:00:05:19.569
00:12:37.423 : ru:00:12:37.423
00:17:41.352 : ru:00:17:41.352
00:23:15.894 : ru:00:23:15.894
00:27:38.240 : ru:00:27:38.240
00:33:24.211 : ru:00:33:24.211
00:39:25.780 : ru:00:39:25.780
00:44:54.066 : ru:00:44:54.066
00:50:08.631 : ru:00:50:08.631
00:56:11.159 : ru:00:56:11.159
01:05:01.981 : ru:01:05:01.981
01:10:57.295 : ru:01:10:57.295
01:15:08.421 : ru:01:15:08.421
01:21:50.155 : ru:01:21:50.155
01:26:24.638 : ru:01:26:24.638
01:32:01.266 : ru:01:32:01.266
01:35:26.721 : ru:01:35:26.721

Скриншоты


Скачать

Скачать торрент!

Как скачивать? · Что такое торрент? · Рейтинг и ограничения

Сайт не распространяет и не хранит электронные версии произведений, а лишь предоставляет доступ к создаваемому пользователями каталогу ссылок на торрент-файлы, которые содержат только списки хеш-сумм

[Профиль] [ЛС]
Показать сообщения:    
Ответить на тему

Текущее время: Сегодня 19:42

Часовой пояс: GMT + 4



Вы не можете начинать темы
Вы не можете отвечать на сообщения
Вы не можете редактировать свои сообщения
Вы не можете удалять свои сообщения
Вы не можете голосовать в опросах
Вы не можете прикреплять файлы к сообщениям
Вы не можете скачивать файлы