Отважные / Courageous (Алекс Кендрик / Alex Kendrick) [2011, драма, семейный, BDRip-AVC] MVO + original + sub (rus forced, eng)

Ответить на тему
 
Автор Сообщение

user ®

Стаж: 7 лет 7 месяцев

Сообщений: 20008

Пост Пост: #1 от 06-Май-2012 20:16

[Цитировать]

Отважные / Courageous
«Honor Begins At Home»-- Год выпуска: 2011
Страна: США
Жанр: драма, семейный
Продолжительность: 02:09:20
Перевод: Профессиональный (многоголосый, закадровый)
Cубтитры: русские (форсированные), английские
Оригинальная аудиодорожка: английский--Режиссер: Алекс Кендрик / Alex Kendrick--В ролях: Алекс Кендрик, Кен Бевел, Бэн Девис, Кевин Даунс, Анджелита Нельсон, Роберт Амайа, Т.С. Сталлингс, Джесса Дуггар, Расти Мартин, Joy-Anna Duggar...--Описание: Сотрудники правоохранительных органов Адам Митчелл, Натан Хейс, и их коллеги охотно берутся за разрешение самых сложных ситуаций, которые только может приготовить им их непростая профессия. Однако внезапно они сталкиваются с трудностями, к которым ни один из них не был по настоящему готов, - с проблемами отцовства! Всецело отдавая себя работе, они вскоре замечают, что их дети начинают всё больше и больше от них отдаляться. Удастся ли им защитить тех, кто для них дороже жизни?
Эта душераздирающая экшен-драма, затрагивающая самые главные человеческие ценности, заставит вас и плакать и смеяться, и задуматься о том, что важнее родных людей ничего нет.--
-- --Релиз группы: AVC --Качество: BDRip-AVC (COURAGEOUS_ 2011_BDREMUX_HDCLUB)
Формат: mkv
Видео кодек: H.264
Аудио кодек: ac3
Видео: AVC | 2364Kbps | 1184 x 504 (2.349) | 23.976 fps
Аудио №1: 48 kHz, AC3 Dolby Digital, 3/2 (L,C,R,l,r) + LFE ch, ~448.00 kbps avg Rus
Аудио №2: 48 kHz, AC3 Dolby Digital, 3/2 (L,C,R,l,r) + LFE ch, ~448.00 kbps avg Eng
Субтитры: Russian SRT
Главы: оригинальные с blu-ray

Log x264

x264 [info]: frame I:1540 Avg QP:18.44 size: 62891
x264 [info]: frame P:38749 Avg QP:19.99 size: 21579
x264 [info]: frame B:145784 Avg QP:20.60 size: 9330
x264 [info]: consecutive B-frames: 2.0% 1.7% 6.0% 18.9% 21.2% 38.0% 6.9% 1.7% 1.8% 1.1% 0.8%
x264 [info]: mb I I16..4: 8.5% 69.8% 21.6%
x264 [info]: mb P I16..4: 0.8% 7.5% 1.5% P16..4: 34.3% 34.8% 9.0% 3.1% 0.3% skip: 8.6%
x264 [info]: mb B I16..4: 0.1% 0.8% 0.1% B16..8: 35.9% 20.5% 3.0% direct: 5.5% skip:34.1% L0:41.4% L1:45.5% BI:13.1%
x264 [info]: 8x8 transform intra:75.1% inter:59.8%
x264 [info]: direct mvs spatial:100.0% temporal:0.0%
x264 [info]: coded y,uvDC,uvAC intra: 85.5% 80.0% 48.8% inter: 21.7% 15.0% 2.2%
x264 [info]: i16 v,h,dc,p: 24% 20% 3% 53%
x264 [info]: i8 v,h,dc,ddl,ddr,vr,hd,vl,hu: 11% 8% 4% 10% 14% 14% 14% 12% 13%
x264 [info]: i4 v,h,dc,ddl,ddr,vr,hd,vl,hu: 13% 9% 4% 9% 15% 14% 14% 10% 12%
x264 [info]: i8c dc,h,v,p: 32% 28% 20% 19%
x264 [info]: Weighted P-Frames: Y:3.8% UV:2.3%
x264 [info]: ref P L0: 49.8% 11.8% 18.0% 6.0% 5.0% 3.6% 3.3% 2.2% 0.2% 0.0%
x264 [info]: ref B L0: 75.1% 12.4% 5.9% 2.9% 2.1% 1.1% 0.5%
x264 [info]: ref B L1: 92.2% 7.8%
x264 [info]: kb/s:2363.89

MI

Format : Matroska
File size : 2.95 GiB
Duration : 2h 9mn
Overall bit rate : 3 262 Kbps
Encoded date : UTC 2012-04-26 16:42:05
Writing application : mkvmerge v4.5.0 ('Speed of Light') built on Feb 1 2011 02:10:32
Writing library : libebml v1.2.0 + libmatroska v1.1.0
Video
ID : 1
Format : AVC
Format/Info : Advanced Video Codec
Format profile : High@L4.1
Format settings, CABAC : Yes
Format settings, ReFrames : 8 frames
Muxing mode : Container profile=Unknown@4.1
Codec ID : V_MPEG4/ISO/AVC
Duration : 2h 9mn
Bit rate : 2 301 Kbps
Width : 1 184 pixels
Height : 504 pixels
Display aspect ratio : 2.35:1
Frame rate : 23.976 fps
Resolution : 24 bits
Colorimetry : 4:2:0
Scan type : Progressive
Bits/(Pixel*Frame) : 0.161
Stream size : 2.08 GiB (70%)
Writing library : x264 core 118 r2085 8a62835
Encoding settings : cabac=1 / ref=8 / deblock=1:-2:-1 / analyse=0x3:0x133 / me=umh / subme=11 / psy=1 / psy_rd=1.00:0.00 / mixed_ref=1 / me_range=32 / chroma_me=1 / trellis=2 / 8x8dct=1 / cqm=0 / deadzone=21,11 / fast_pskip=1 / chroma_qp_offset=-2 / threads=3 / sliced_threads=0 / nr=0 / decimate=1 / interlaced=0 / bluray_compat=0 / constrained_intra=0 / bframes=10 / b_pyramid=2 / b_adapt=2 / b_bias=0 / direct=3 / weightb=1 / open_gop=0 / weightp=2 / keyint=250 / keyint_min=23 / scenecut=40 / intra_refresh=0 / rc_lookahead=60 / rc=crf / mbtree=0 / crf=18.9 / qcomp=0.60 / qpmin=0 / qpmax=69 / qpstep=4 / vbv_maxrate=50000 / vbv_bufsize=62500 / crf_max=0.0 / nal_hrd=none / ip_ratio=1.15 / pb_ratio=1.05 / aq=2:0.95
Audio #1
ID : 2
Format : AC-3
Format/Info : Audio Coding 3
Codec ID : A_AC3
Duration : 2h 9mn
Bit rate mode : Constant
Bit rate : 448 Kbps
Channel(s) : 6 channels
Channel positions : Front: L C R, Surround: L R, LFE
Sampling rate : 48.0 KHz
Stream size : 414 MiB (14%)
Title : Русский
Language : Russian
Audio #2
ID : 3
Format : AC-3
Format/Info : Audio Coding 3
Codec ID : A_AC3
Duration : 2h 9mn
Bit rate mode : Constant
Bit rate : 448 Kbps
Channel(s) : 6 channels
Channel positions : Front: L C R, Surround: L R, LFE
Sampling rate : 48.0 KHz
Stream size : 414 MiB (14%)
Title : Оригинал
Text #1
ID : 4
Format : UTF-8
Codec ID : S_TEXT/UTF8
Codec ID/Info : UTF-8 Plain Text
Title : Русские форсированные
Language : Russian
Text #2
ID : 5
Format : UTF-8
Codec ID : S_TEXT/UTF8
Codec ID/Info : UTF-8 Plain Text
Title : Английские
Menu
00:00:00.000 : en:00:00:00.000
00:10:37.720 : en:00:10:37.720
00:18:23.143 : en:00:18:23.143
00:28:39.426 : en:00:28:39.426
00:34:51.923 : en:00:34:51.923
00:41:42.249 : en:00:41:42.249
00:52:33.859 : en:00:52:33.859
01:04:24.068 : en:01:04:24.068
01:13:14.932 : en:01:13:14.932
01:18:32.290 : en:01:18:32.290
01:26:10.665 : en:01:26:10.665
01:34:58.901 : en:01:34:58.901
01:40:03.122 : en:01:40:03.122
01:43:23.238 : en:01:43:23.238
01:48:17.324 : en:01:48:17.324
01:55:44.187 : en:01:55:44.187

Скриншоты

Скриншот с названием

Сравнение с исходником

Source Rip AVP Studio
Скачать

Скачать торрент!

Как скачивать? · Что такое торрент? · Рейтинг и ограничения

Сайт не распространяет и не хранит электронные версии произведений, а лишь предоставляет доступ к создаваемому пользователями каталогу ссылок на торрент-файлы, которые содержат только списки хеш-сумм

[Профиль] [ЛС]
Показать сообщения:    
Ответить на тему

Текущее время: Сегодня 16:43

Часовой пояс: GMT + 4



Вы не можете начинать темы
Вы не можете отвечать на сообщения
Вы не можете редактировать свои сообщения
Вы не можете удалять свои сообщения
Вы не можете голосовать в опросах
Вы не можете прикреплять файлы к сообщениям
Вы не можете скачивать файлы