Люблю смотреть на девушек / J'aime regarder les filles (Фредерик Луф / Fred Louf) [2011, Франция, драма, комедия, DVDRip] VO Sub Rus + Original Fre

Ответить на тему
 
Автор Сообщение

user ®

Стаж: 7 лет 7 месяцев

Сообщений: 20008

Пост Пост: #1 от 06-Май-2012 20:16

[Цитировать]

Люблю смотреть на девушек / J'aime regarder les filles
Страна: Франция
Жанр: драма, комедия
Год выпуска: 2011
Продолжительность: 01:32:12
Перевод: Одноголосый закадровый (Kenum)
Cубтитры: русские
Оригинальная аудиодорожка: французский
Режиссер: Фредерик Луф / Fred Louf
В ролях: Пьер Нинье, Одри Бастьен, Али Мархьяр, Мишель Вюйермоз, Катрин Шевалье, Херв Пьер, Жоан Либеро, Тома Шаброль
Описание: Накануне 10 мая 1981 года Примо знакомится с восемнадцатилетней Габриэль. Она принадлежит к парижской буржуазии. Он — сын мелкого коммерсанта из провинции. Ослеплённый шармом Габриэль и окружающими его девушками, Примо блефует. Он придумывает свою родословную, много обманывает и компенсирует пустоту своих карманов смелым предприятием и фантазией.

Над релизом трудились:

Озвучка: Kenum (Владислав Данилов)
Работа со звуком: viruse (Виталий Емельянов)
Перевод: А.Хазина
скачать СЕМПЛ с multi-up
Качество видео: DVDRip
Формат видео: AVI
Видео: 688x384 (1.79:1), 25 fps, XviD MPEG-4 ~1668 kbps avg, 0.25 bit/pixel
Аудио: 48 kHz, MPEG Layer 3, 2 ch, ~128.00 kbps avg
Аудио 2: 48 kHz, MPEG Layer 3, 2 ch, ~128.00 kbps avg
Формат субтитров: softsub (SRT)

MediaInfo

D:\ОЗВУЧКА\ГОТОВОЕ\lublu_smotret_na_devushek\lublu_smotret_na_devushek.avi
General
Complete name : D:\ОЗВУЧКА\ГОТОВОЕ\lublu_smotret_na_devushek\lublu_smotret_na_devushek.avi
Format : AVI
Format/Info : Audio Video Interleave
File size : 1.25 GiB
Duration : 1h 32mn
Overall bit rate : 1 940 Kbps
Writing application : VirtualDubMod 1.5.10.2 (build 2540/release)
Writing library : VirtualDubMod build 2540/release
Video #0
ID : 0
Format : MPEG-4 Visual
Format profile : Advanced Simple@L5
Format settings, BVOP : 1
Format settings, QPel : No
Format settings, GMC : No warppoints
Format settings, Matrix : Default (MPEG)
Muxing mode : Packed bitstream
Codec ID : XVID
Codec ID/Hint : XviD
Duration : 1h 32mn
Bit rate : 1 669 Kbps
Width : 688 pixels
Height : 384 pixels
Display aspect ratio : 16:9
Frame rate : 25.000 fps
Color space : YUV
Chroma subsampling : 4:2:0
Bit depth : 8 bits
Scan type : Progressive
Compression mode : Lossy
Bits/(Pixel*Frame) : 0.253
Stream size : 1.08 GiB (86%)
Writing library : XviD 1.2.1 (UTC 2008-12-04)
Audio #1
ID : 1
Format : MPEG Audio
Format version : Version 1
Format profile : Layer 3
Codec ID : 55
Codec ID/Hint : MP3
Duration : 1h 32mn
Bit rate mode : Constant
Bit rate : 128 Kbps
Channel(s) : 2 channels
Sampling rate : 48.0 KHz
Compression mode : Lossy
Stream size : 84.4 MiB (7%)
Alignment : Aligned on interleaves
Interleave, duration : 40 ms (1.00 video frame)
Interleave, preload duration : 504 ms
Audio #2
ID : 2
Format : MPEG Audio
Format version : Version 1
Format profile : Layer 3
Codec ID : 55
Codec ID/Hint : MP3
Duration : 1h 32mn
Bit rate mode : Constant
Bit rate : 128 Kbps
Channel(s) : 2 channels
Sampling rate : 48.0 KHz
Compression mode : Lossy
Stream size : 84.4 MiB (7%)
Alignment : Aligned on interleaves
Interleave, duration : 40 ms (1.00 video frame)
Interleave, preload duration : 504 ms

Скриншот c названием фильма

Скриншоты

Скачать

Скачать торрент!

Как скачивать? · Что такое торрент? · Рейтинг и ограничения

Сайт не распространяет и не хранит электронные версии произведений, а лишь предоставляет доступ к создаваемому пользователями каталогу ссылок на торрент-файлы, которые содержат только списки хеш-сумм

[Профиль] [ЛС]
Показать сообщения:    
Ответить на тему

Текущее время: Сегодня 14:32

Часовой пояс: GMT + 4



Вы не можете начинать темы
Вы не можете отвечать на сообщения
Вы не можете редактировать свои сообщения
Вы не можете удалять свои сообщения
Вы не можете голосовать в опросах
Вы не можете прикреплять файлы к сообщениям
Вы не можете скачивать файлы