Должно быть, это здесь / Где бы ты ни был / This Must Be the Place (Паоло Соррентино / Paolo Sorrentino) [2011, Франция, Италия, Ирландия, драма, BDRip] VO Lisitz Sub Rus + Original Eng

Ответить на тему
 
Автор Сообщение

user ®

Стаж: 7 лет 7 месяцев

Сообщений: 20008

Пост Пост: #1 от 06-Май-2012 20:16

[Цитировать]

Должно быть, это здесь / Где бы ты ни был / This Must Be the Place
Страна: Франция, Италия, Ирландия
Жанр: драма
Год выпуска: 2011
Продолжительность: 01:58:08
Перевод: Одноголосый закадровый
Cубтитры: русские от Nokino (проверка орфографии: zloy_кeкs)
Оригинальная аудиодорожка: английский (отдельно)
Режиссер: Паоло Соррентино / Paolo Sorrentino
В ролях: Шон Пенн, Фрэнсис МакДорманд, Джадд Хёрш, Ив Хьюсон, Керри Кондон, Гарри Дин Стэнтон, Джойс Ван Пэттен, Дэвид Бирн, Олвен Фьёр, Ши Уигхэм
Описание: Герой фильма Шайенн - бывшая рок-звезда. В свои пятьдесят он живет в Дублине на доходы от недвижимости и все так же носит готические наряды. Известие о смерти отца, с которым он давно потерял все связи, заставляет его вернуться в Нью-Йорк. Он узнает, что отец последние годы жил одной навязчивой идеей: отомстить за давнее унижение, жертвой которого он однажды стал. Шайенн решает исполнить желание покойного отца и начинает долгое путешествие по Америке.
IMDB: 6.8/10
Сэмпл: http://multi-up.com/680008
Качество видео: BDRip (исх. This Must Be The Place 2011 1080p FRE Blu-ray AVC DTS-HD MA 5 1-HDChina)
Формат видео: AVI
Видео: 720x304 (2.37:1), 23.976 fps, XviD build 50 ~2195 kbps avg, 0.42 bit/pixel
Аудио 1: 48 kHz, AC3 Dolby Digital, 3/2 (L,C,R,l,r) + LFE ch, ~448 kbps (VO)
Аудио 2: 48 kHz, AC3 Dolby Digital, 3/2 (L,C,R,l,r) + LFE ch, ~448 kbps (Original / отдельно)
Формат субтитров: отключаемые (SRT)

MediaInfo

General
Complete name : This.Must.Be.the.Place.2011.BDRip.avi
Format : AVI
Format/Info : Audio Video Interleave
Format profile : OpenDML
File size : 2.19 GiB
Duration : 1h 58mn
Overall bit rate : 2 651 Kbps
Writing application : VirtualDubMod 1.5.10.3 | www.virtualdub-fr.org || (build 2550/release)
Writing library : VirtualDubMod build 2550/release
Video
ID : 0
Format : MPEG-4 Visual
Format profile : Advanced Simple@L5
Format settings, BVOP : 2
Format settings, QPel : No
Format settings, GMC : No warppoints
Format settings, Matrix : Custom
Codec ID : XVID
Codec ID/Hint : XviD
Duration : 1h 58mn
Bit rate : 2 191 Kbps
Width : 720 pixels
Height : 304 pixels
Display aspect ratio : 2.35:1
Frame rate : 23.976 fps
Color space : YUV
Chroma subsampling : 4:2:0
Bit depth : 8 bits
Scan type : Progressive
Compression mode : Lossy
Bits/(Pixel*Frame) : 0.417
Stream size : 1.81 GiB (83%)
Writing library : XviD 1.2.1 (UTC 2008-12-04)
Audio
ID : 1
Format : AC-3
Format/Info : Audio Coding 3
Mode extension : CM (complete main)
Codec ID : 2000
Duration : 1h 58mn
Bit rate mode : Constant
Bit rate : 448 Kbps
Channel(s) : 6 channels
Channel positions : Front: L C R, Side: L R, LFE
Sampling rate : 48.0 KHz
Bit depth : 16 bits
Compression mode : Lossy
Stream size : 379 MiB (17%)
Alignment : Split accross interleaves
Interleave, duration : 42 ms (1.00 video frame)
Interleave, preload duration : 500 ms

Скриншот c названием фильма

Скриншоты


Скачать

Скачать торрент!

Как скачивать? · Что такое торрент? · Рейтинг и ограничения

Сайт не распространяет и не хранит электронные версии произведений, а лишь предоставляет доступ к создаваемому пользователями каталогу ссылок на торрент-файлы, которые содержат только списки хеш-сумм

[Профиль] [ЛС]
Показать сообщения:    
Ответить на тему

Текущее время: Сегодня 14:36

Часовой пояс: GMT + 4



Вы не можете начинать темы
Вы не можете отвечать на сообщения
Вы не можете редактировать свои сообщения
Вы не можете удалять свои сообщения
Вы не можете голосовать в опросах
Вы не можете прикреплять файлы к сообщениям
Вы не можете скачивать файлы