Первый мститель / Captain America: The First Avenger (Джо Джонстон / Joe Johnston) [2011, Фантастика, боевик, приключения, BDRip] Dub + Orig + Sub rus, eng

Ответить на тему
 
Автор Сообщение

user ®

Стаж: 7 лет 7 месяцев

Сообщений: 20008

Пост Пост: #1 от 06-Май-2012 20:16

[Цитировать]

Первый мститель / Captain America: The First Avenger
Год выпуска: 2011
Страна: США
Жанр: Фантастика, боевик, приключения
Продолжительность: 02:04:11
Перевод: Профессиональный дублированный
Субтитры:русские, английские
Оригинальная аудиодорожка: английский
Режиссер: Джо Джонстон / Joe JohnstonВ ролях: Крис Эванс (Captain America / Steve Rogers,), Томми Ли Джонс (Colonel Chester Phillips), Хьюго Уивинг (Johann Schmidt / Red Skull), Доминик Купер (Howard Stark), Нил МакДонаф (Timothy 'Dum Dum' Dugan), Дерек Люк (Gabe Jones), Стенли Туччи (Dr. Abraham Erskine), Хейли Этвелл (Peggy Carter), Себастиан Стэн (James Buchanan 'Bucky' Barnes), Ричард Армитэдж (Heinz Kruger), Сэмюэл Л. Джексон (Nick Fury), Тоби Джонс (Dr. Arnim Zola)Описание: Стив Роджерс добровольно соглашается принять участие в эксперименте, который превратит его в супер солдата, известного как Первый мститель. Роджерс вступает в вооруженные силы США вместе с Баки Барнсом и Пегги Картер, чтобы бороться с враждебной организацией ГИДРА, которой управляет безжалостный Красный Череп.

СЭМПЛ
Качество видео: BDRip(Исх.Captain America The First Avenger 2011 EUR Blu-ray AVC DTS-HD MA 5.1-HDRoad )
Формат видео: AVI
Видео:720x304 (2.37:1), 23.976 fps, XviD build 50 ~2374 kbps avg, 0.45 bit/pixel
Аудио:48.0 KHz, AC3, 6 ch, 448 kbps DUB
Аудио:48.0 KHz, AC3, 6 ch, 448 kbps ENG

MediaInfo

General
Complete name : D:\Cap America.chopper887.avi
Format : AVI
Format/Info : Audio Video Interleave
File size : 2.85 GiB
Duration : 2h 4mn
Overall bit rate : 3 285 Kbps
Writing application : VirtualDubMod 1.5.10.3 | www.virtualdub-fr.org || (build 2550/release)
Writing library : VirtualDubMod build 2550/release
Video
ID : 0
Format : MPEG-4 Visual
Format profile : Advanced Simple@L5
Format settings, BVOP : 2
Format settings, QPel : No
Format settings, GMC : No warppoints
Format settings, Matrix : Custom
Codec ID : XVID
Codec ID/Hint : XviD
Duration : 2h 4mn
Bit rate : 2 375 Kbps
Width : 720 pixels
Height : 304 pixels
Display aspect ratio : 2.35:1
Frame rate : 23.976 fps
Color space : YUV
Chroma subsampling : 4:2:0
Bit depth : 8 bits
Scan type : Progressive
Compression mode : Lossy
Bits/(Pixel*Frame) : 0.453
Stream size : 2.06 GiB (72%)
Writing library : XviD 1.2.1 (UTC 2008-12-04)
Audio #1
ID : 1
Format : AC-3
Format/Info : Audio Coding 3
Mode extension : CM (complete main)
Codec ID : 2000
Duration : 2h 4mn
Bit rate mode : Constant
Bit rate : 448 Kbps
Channel(s) : 6 channels
Channel positions : Front: L C R, Side: L R, LFE
Sampling rate : 48.0 KHz
Bit depth : 16 bits
Compression mode : Lossy
Stream size : 398 MiB (14%)
Alignment : Split accross interleaves
Interleave, duration : 42 ms (1.00 video frame)
Interleave, preload duration : 500 ms
Audio #2
ID : 2
Format : AC-3
Format/Info : Audio Coding 3
Mode extension : CM (complete main)
Codec ID : 2000
Duration : 2h 4mn
Bit rate mode : Constant
Bit rate : 448 Kbps
Channel(s) : 6 channels
Channel positions : Front: L C R, Side: L R, LFE
Sampling rate : 48.0 KHz
Bit depth : 16 bits
Compression mode : Lossy
Stream size : 398 MiB (14%)
Alignment : Split accross interleaves
Interleave, duration : 42 ms (1.00 video frame)
Interleave, preload duration : 500 ms

Скриншоты

Скачать

Скачать торрент!

Как скачивать? · Что такое торрент? · Рейтинг и ограничения

Сайт не распространяет и не хранит электронные версии произведений, а лишь предоставляет доступ к создаваемому пользователями каталогу ссылок на торрент-файлы, которые содержат только списки хеш-сумм

[Профиль] [ЛС]

eldarkhan

Пол:

Стаж: 6 лет 3 месяца

Сообщений: 8

Пост Пост: #2 от 25-Май-2012 14:43 (спустя 18 дней)

[Цитировать]

Качество - норм!
[Профиль] [ЛС]
Показать сообщения:    
Ответить на тему

Текущее время: Сегодня 16:06

Часовой пояс: GMT + 4



Вы не можете начинать темы
Вы не можете отвечать на сообщения
Вы не можете редактировать свои сообщения
Вы не можете удалять свои сообщения
Вы не можете голосовать в опросах
Вы не можете прикреплять файлы к сообщениям
Вы не можете скачивать файлы