Время / In Time (Эндрю Никкол / Andrew Niccol) [2011, США, фантастика, триллер, драма, BDRip-AVC 720p Hi10P] Dub (rus, ukr) + Original (eng) + Sub (rus, eng)

Ответить на тему
 
Автор Сообщение

user ®

Стаж: 7 лет 7 месяцев

Сообщений: 20008

Пост Пост: #1 от 06-Май-2012 20:16

[Цитировать]

Время / In Time
Страна: США
Жанр: фантастика, триллер, драма
Год выпуска: 2011
Продолжительность: 01:48:36
Перевод: Профессиональный (дублированный) (русский, украинский)
Cубтитры: русские, русские надписи (форсированные), английские, английские (SDH)
Оригинальная аудиодорожка: английский
Навигация по главам: есть
Режиссер: Эндрю Никкол / Andrew Niccol
В ролях:

Джастин Тимберлэйк (Will Salas), Аманда Сайфред (Sylvia Weis), Киллиан Мёрфи (Raymond Leon), Алекс Петтифер (Fortis), Винсент Картайзер (Philippe Weis), Шайло Уствальд (Maya), Джонни Галэки (Borel), Колин МакГерк (Citizen), Оливия Уайлд (Rachel Salas), Уилл Харрис (Ulysse), Майкл Уильям Фриман (Nardin), Джесси Ли (Webb), Аарон Перило (Bell)
Дублёры: Илья Бледный (Will Salas), Татьяна Шитова (Sylvia Weis), Юрий Деркач (Raymond Leon), Пётр Иващенко (Fortis), Никита Прозоровский (Borel), Лиза Мартиросова, Ольга Зубкова (Rachel Salas), Евгений Вальц (Henry Hamilton), Александр Коврижных (Timekeeper Jaeger), Даниил Эльдаров (Timekeeper Korsqq), Денис Беспалый (Philippe Weis)
Описание: Добро пожаловать в мир, где время стало единственной и самой твердой валютой, где люди генетически запрограммированы так, что в 25 лет перестают стареть.
Правда, последующие годы стоят денег. И вот богатые становятся практически бессмертными, а бедные, как всегда, обречены сражаться за жизнь.
Уилл, бунтарь из гетто, несправедливо обвинен в убийстве с целью грабежа времени и вынужден, захватив заложницу, пуститься в бега.
Так, ежеминутно рискуя жизнью, эти двое становятся грозным оружием в борьбе с системой. Но вот вопрос: кто кого? А может быть, в дело вмешается третья сила?
Доп. информация:

MPAA: PG-13 - Детям до 13 лет просмотр не желателен
Сэмпл: http://multi-up.com/645706
Качество | Исходник: BDRip-AVC 720p Hi10P |
Формат видео: MKV
Видео кодек: H.264
Аудио кодек: AC3
Видео: x.264, 1280x544, 2.35:1, 23,976 fps, 2111 Kbps, Hi10P
Аудио: Дубляж (русский, R5), AC3, 48 kHz, 384 kbps, 3/2 (L,C,R,l,r) + LFE ch
Аудио 2: Original, AC3, 48 kHz, 384 kbps, 3/2 (L,C,R,l,r) + LFE ch
Аудио 3: Дубляж (украинский, R5), AC3, 48 kHz, 384 kbps, 3/2 (L,C,R,l,r) + LFE ch, внешним файлом
Формат субтитров: softsub (SRT)
Доп. информация о субтитрах: встроенные в контейнер MKV

Интересные факты

  • Рабочим названием фильма было «I’m.mortal», которое затем заменили на «Now» и, в конце концов, на «In Time»
  • Сценарист, режиссёр и продюсер картины - Эндрю Никкол, известен по фильмам, как «Оружейный барон», «Терминал», «Симона», «Шоу Трумана», «Гаттака».
  • Оператор ленты - Роджер Дикинс, 20 лет проработал с братьями Коэнами, на его счету: «Игры разума», «В долине Эла», «Ураган», «Большой Лебовски», «Побег из Шоушенка», «Фарго», «Сид и Нэнси», «Старикам здесь не место» и др. Для Дикинса, ветерана кинематографа, ранее использовавшего только плёночные аппараты, «Время» стал первым фильмом, снятым на цифровую камеру.
  • Джастин Тимберлейк, Аманда Сейфрид, Оливия Уайлд и Винсент Картайзер играли вместе в фильме «Альфа Дог»
  • Аманда Сейфрид (Сильвия Вайз) - единственная, из исполнителей главных ролей, которой на самом деле было 25 лет, во время съемок фильма, а Оливия Уайлд (мать Уила Саласа) в реальной жизни на 3 года моложе Джастина Тимберлейка.
  • В фильме отсутствует мобильная связь, население пользуется телефонными автоматами, установленными на улицах. Также нет интернета и домашнего ПК.
  • Весь автотранспорт в фильме уже сейчас является классическим: «Cadillac Fleetwood» - у Часовых, «Lincoln Continental», «Dodge Challenger» - у Стражей времени, «Jaguar E-Type», «Mercedes-Benz W198», он же «SL300 Gullwing» - в автосалоне. Судя по звуку, все машины оснащены электродвигателями, но имеют выхлопные трубы. Все автомобили в фильме не имеют номерных знаков.
  • Стражи Времени в фильме вооружены пистолетами «Glock 17» и штурмовыми винтовками «Steyr AUG».
  • В титрах можно увидеть имена героев фильма, позаимствованных у названий известных фирм производителей часов, в частности, «Ulysse Nardin», «Rado», «Bell and Ross», «Fortis» и др.

x.264 log

x264 [info]: profile High 10, level 4.1, 4:2:0 10-bit
x264 [info]: frame I:1711 Avg QP:27.25 size: 98251
x264 [info]: frame P:33291 Avg QP:31.22 size: 23114
x264 [info]: frame B:121229 Avg QP:33.21 size: 6444
x264 [info]: consecutive B-frames: 2.2% 2.7% 6.1% 26.6% 14.8% 30.1% 7.7% 3.4% 2.9% 1.9% 1.1% 0.4% 0.2%
x264 [info]: mb I I16..4: 6.0% 75.6% 18.4%
x264 [info]: mb P I16..4: 1.1% 5.5% 1.1% P16..4: 44.5% 17.3% 17.2% 0.9% 0.2% skip:12.2%
x264 [info]: mb B I16..4: 0.0% 0.3% 0.1% B16..8: 38.0% 7.4% 2.3% direct: 3.2% skip:48.7% L0:43.7% L1:48.4% BI: 7.9%
x264 [info]: 8x8 transform intra:73.1% inter:60.7%
x264 [info]: direct mvs spatial:99.0% temporal:1.0%
x264 [info]: coded y,uvDC,uvAC intra: 84.9% 70.1% 43.4% inter: 16.4% 9.1% 2.9%
x264 [info]: i16 v,h,dc,p: 41% 18% 6% 36%
x264 [info]: i8 v,h,dc,ddl,ddr,vr,hd,vl,hu: 10% 9% 4% 10% 15% 14% 15% 11% 12%
x264 [info]: i4 v,h,dc,ddl,ddr,vr,hd,vl,hu: 13% 10% 3% 9% 15% 14% 13% 11% 12%
x264 [info]: i8c dc,h,v,p: 30% 27% 21% 23%
x264 [info]: Weighted P-Frames: Y:5.4% UV:3.5%
x264 [info]: ref P L0: 51.4% 22.0% 9.2% 5.0% 3.7% 2.6% 2.1% 1.3% 1.1% 0.8% 0.7% 0.1% 0.0%
x264 [info]: ref B L0: 68.9% 13.7% 6.5% 3.3% 2.4% 1.8% 1.4% 0.8% 0.7% 0.3% 0.2%
x264 [info]: ref B L1: 92.3% 7.7%
x264 [info]: kb/s:2110.23

MediaInfo

General
Complete name : In.Time.2011.BDRip.720p.Hi10P.Rus.Eng.Subs.mkv
Format : Matroska
Format version : Version 2
File size : 2.19 GiB
Duration : 1h 48mn
Overall bit rate : 2 880 Kbps
Movie name : Время/In Time (2011) Hi10P
Video
ID : 1
Format : AVC
Format/Info : Advanced Video Codec
Format profile : High 10@L4.1
Format settings, CABAC : Yes
Format settings, ReFrames : 12 frames
Codec ID : V_MPEG4/ISO/AVC
Duration : 1h 48mn
Bit rate : 2 111 Kbps
Width : 1 280 pixels
Height : 544 pixels
Display aspect ratio : 2.35:1
Frame rate : 23.976 fps
Color space : YUV
Chroma subsampling : 4:2:0
Bit depth : 10 bits
Scan type : Progressive
Bits/(Pixel*Frame) : 0.126
Stream size : 1.56 GiB (71%)
Title : In Time [BDRip 720p Hi10P encoded by Lenchik]
Writing library : x264 core 120 r2146+650 183470d
Encoding settings : cabac=1 / ref=12 / deblock=1:-3:-3 / analyse=0x3:0x133 / me=esa / subme=10 / psy=1 / fade_compensate=0.00 / psy_rd=0.90:0.00 / mixed_ref=1 / me_range=32 / chroma_me=1 / trellis=2 / 8x8dct=1 / cqm=0 / deadzone=21,11 / fast_pskip=0 / chroma_qp_offset=-2 / threads=12 / sliced_threads=0 / nr=0 / decimate=0 / interlaced=0 / bluray_compat=0 / constrained_intra=0 / fgo=0 / bframes=12 / b_pyramid=2 / b_adapt=2 / b_bias=0 / direct=3 / weightb=1 / open_gop=0 / weightp=2 / keyint=250 / keyint_min=23 / scenecut=40 / intra_refresh=0 / rc=2pass / mbtree=0 / bitrate=2111 / ratetol=1.0 / qcomp=0.60 / qpmin=0 / qpmax=81 / qpstep=4 / cplxblur=20.0 / qblur=0.5 / ip_ratio=1.40 / pb_ratio=1.25 / aq=1:1.10 / zones=149900,156200,q=47
Language : English
Default : Yes
Forced : No
Color primaries : BT.709-5, BT.1361, IEC 61966-2-4, SMPTE RP177
Matrix coefficients : BT.709-5, BT.1361, IEC 61966-2-4 709, SMPTE RP177
Audio #1
ID : 2
Format : AC-3
Format/Info : Audio Coding 3
Mode extension : CM (complete main)
Codec ID : A_AC3
Duration : 1h 48mn
Bit rate mode : Constant
Bit rate : 384 Kbps
Channel(s) : 6 channels
Channel positions : Front: L C R, Side: L R, LFE
Sampling rate : 48.0 KHz
Bit depth : 16 bits
Compression mode : Lossy
Delay relative to video : 2ms
Stream size : 298 MiB (13%)
Title : Дубляж (R5), 48 kHz, AC3, 3/2 (L,C,R,l,r) + LFE ch, ~ 384.00 kbps
Language : Russian
Default : Yes
Forced : No
Audio #2
ID : 3
Format : AC-3
Format/Info : Audio Coding 3
Mode extension : CM (complete main)
Codec ID : A_AC3
Duration : 1h 48mn
Bit rate mode : Constant
Bit rate : 384 Kbps
Channel(s) : 6 channels
Channel positions : Front: L C R, Side: L R, LFE
Sampling rate : 48.0 KHz
Bit depth : 16 bits
Compression mode : Lossy
Delay relative to video : 2ms
Stream size : 298 MiB (13%)
Title : Original, 48 kHz, AC3, 3/2 (L,C,R,l,r) + LFE ch, ~ 384.00 kbps
Language : English
Default : No
Forced : No
Text #1
ID : 4
Format : UTF-8
Codec ID : S_TEXT/UTF8
Codec ID/Info : UTF-8 Plain Text
Title : Русские надписи
Language : Russian
Default : Yes
Forced : Yes
Text #2
ID : 5
Format : UTF-8
Codec ID : S_TEXT/UTF8
Codec ID/Info : UTF-8 Plain Text
Title : Русские субтитры
Language : Russian
Default : No
Forced : No
Text #3
ID : 6
Format : UTF-8
Codec ID : S_TEXT/UTF8
Codec ID/Info : UTF-8 Plain Text
Title : English subtitles
Language : English
Default : No
Forced : No
Text #4
ID : 7
Format : UTF-8
Codec ID : S_TEXT/UTF8
Codec ID/Info : UTF-8 Plain Text
Title : English subtitles (SDH)
Language : English
Default : No
Forced : No
Menu
00:00:00.000 : en:Chapter 1
00:05:17.026 : en:Chapter 2
00:10:13.488 : en:Chapter 3
00:18:20.850 : en:Chapter 4
00:21:39.132 : en:Chapter 5
00:24:53.201 : en:Chapter 6
00:29:14.670 : en:Chapter 7
00:34:04.501 : en:Chapter 8
00:37:47.641 : en:Chapter 9
00:40:46.653 : en:Chapter 10
00:44:07.479 : en:Chapter 11
00:47:31.057 : en:Chapter 12
00:50:55.303 : en:Chapter 13
00:53:18.905 : en:Chapter 14
00:55:39.628 : en:Chapter 15
00:59:48.127 : en:Chapter 16
01:05:03.901 : en:Chapter 17
01:08:20.555 : en:Chapter 18
01:10:42.239 : en:Chapter 19
01:13:27.862 : en:Chapter 20
01:16:11.734 : en:Chapter 21
01:19:43.738 : en:Chapter 22
01:22:07.048 : en:Chapter 23
01:26:39.862 : en:Chapter 24
01:28:45.154 : en:Chapter 25
01:32:48.772 : en:Chapter 26
01:36:39.711 : en:Chapter 27
01:42:19.217 : en:Chapter 28

Скриншот c названием фильма

Скриншоты

Скачать

Скачать торрент!

Как скачивать? · Что такое торрент? · Рейтинг и ограничения

Сайт не распространяет и не хранит электронные версии произведений, а лишь предоставляет доступ к создаваемому пользователями каталогу ссылок на торрент-файлы, которые содержат только списки хеш-сумм

[Профиль] [ЛС]

otzhig

Пол:

Стаж: 5 лет 8 месяцев

Сообщений: 38

Пост Пост: #2 от 16-Июн-2012 13:06 (спустя 1 месяц 9 дней)

[Цитировать]

прикольный фильм. задумался...

_________________
[Профиль] [ЛС]
Показать сообщения:    
Ответить на тему

Текущее время: Сегодня 20:03

Часовой пояс: GMT + 4



Вы не можете начинать темы
Вы не можете отвечать на сообщения
Вы не можете редактировать свои сообщения
Вы не можете удалять свои сообщения
Вы не можете голосовать в опросах
Вы не можете прикреплять файлы к сообщениям
Вы не можете скачивать файлы