Красная шапочка / Red Riding Hood (Кэтрин Хардвик / Catherine Hardwicke) [2011, фэнтези, триллер, детектив, BDRip-AVC] [Альтернативная версия / Alternate Cut] Dub + Original + Sub (Rus, Eng)

Ответить на тему
 
Автор Сообщение

user ®

Стаж: 7 лет 7 месяцев

Сообщений: 20008

Пост Пост: #1 от 06-Май-2012 20:16

[Цитировать]

Красная шапочка / Red Riding Hood
Альтернативная версия / Alternate Cut- Страна: США, Warner Bros. Pictures
Жанр: фэнтези, триллер, детектив
Год выпуска: 2011
Продолжительность: 01:40:24-Перевод: Профессиональный (дублированный) за проделанную над звуком работу спасибо Eastlion
Cубтитры: русские, английские
Оригинальная аудиодорожка: английский
Навигация по главам: есть (12 штук, без названий)-Режиссер: Кэтрин Хардвик / Catherine Hardwicke
В ролях: Аманда Сайфред, Гари Олдман, Билли Бёрк, Шайло Фернандез, Макс Айронс, Вирджиния Мэдсен, Лукас Хаас, Джули Кристи, Шона Кейн-Описание: Валери — девочке в красном плаще — предстоит раскрыть, кто же в её родной деревушке является оборотнем. Между тем на личном фронте у Валери тоже не всё просто: мама хочет выдать её замуж за богатого кузнеца Генри, тогда как девушка влюблена в плохиша Питера, местного дровосека.-Сэмпл: http://multi-up.com/521913
Качество видео: BDRip-AVC (BD-Remux)
Формат видео: MKV
Видео: x264, 1056x440 (2.40:1); 2222 Kbps; 23,976 fps; 0,199 bpp
Аудио #1: Russian; AC3; 6ch; 448 kbps; 48Hz; Dub
Аудио #2: English; AC3; 6ch; 448 kbps; 48Hz; Original
Формат субтитров: softsub (SRT)

x264 log

--[Information] [10.07.2011 12:55:05] Encoding started--[Information] [11.07.2011 0:05:11] Standard output stream--[Information] [11.07.2011 0:05:11] Standard error stream---[NoImage] avs [info]: 1056x440p 1:1 @ 24000/1001 fps (cfr)---[NoImage] x264 [info]: using SAR=1/1---[NoImage] x264 [info]: using cpu capabilities: MMX2 SSE2Fast SSSE3 FastShuffle SSE4.1 Cache64---[NoImage] x264 [info]: profile High, level 4.1---[NoImage]---[NoImage] x264 [info]: frame I:1185 Avg QP:14.54 size: 66452---[NoImage] x264 [info]: frame P:31493 Avg QP:17.48 size: 24969---[NoImage] x264 [info]: frame B:111755 Avg QP:18.13 size: 7231---[NoImage] x264 [info]: consecutive B-frames: 2.0% 2.8% 7.9% 22.8% 21.1% 28.9% 7.0% 5.4% 1.5% 0.8%---[NoImage] x264 [info]: mb I I16..4: 15.9% 60.4% 23.8%---[NoImage] x264 [info]: mb P I16..4: 4.3% 19.5% 2.0% P16..4: 53.6% 15.7% 3.0% 0.4% 0.3% skip: 1.3%---[NoImage] x264 [info]: mb B I16..4: 0.7% 1.0% 0.1% B16..8: 42.8% 11.1% 3.1% direct: 7.0% skip:34.1% L0:42.2% L1:45.7% BI:12.1%---[NoImage] x264 [info]: 8x8 transform intra:70.0% inter:58.4%---[NoImage] x264 [info]: direct mvs spatial:97.9% temporal:2.1%---[NoImage] x264 [info]: coded y,uvDC,uvAC intra: 76.4% 83.9% 74.5% inter: 25.8% 23.8% 12.6%---[NoImage] x264 [info]: i16 v,h,dc,p: 61% 12% 15% 12%---[NoImage] x264 [info]: i8 v,h,dc,ddl,ddr,vr,hd,vl,hu: 14% 8% 15% 8% 11% 11% 10% 11% 12%---[NoImage] x264 [info]: i4 v,h,dc,ddl,ddr,vr,hd,vl,hu: 14% 6% 7% 10% 14% 14% 12% 11% 12%---[NoImage] x264 [info]: i8c dc,h,v,p: 54% 18% 17% 11%---[NoImage] x264 [info]: Weighted P-Frames: Y:15.7% UV:9.7%---[NoImage] x264 [info]: ref P L0: 44.3% 6.4% 19.7% 7.8% 6.8% 4.4% 4.4% 2.6% 2.8% 0.6% 0.1%---[NoImage] x264 [info]: ref B L0: 70.8% 13.6% 6.0% 3.5% 2.4% 2.1% 1.1% 0.5%---[NoImage] x264 [info]: ref B L1: 92.3% 7.7%---[NoImage] x264 [info]: kb/s:2222.06---[NoImage] encoded 144433 frames, 3.59 fps, 2222.06 kb/s--[Information] Final statistics---[Information] [11.07.2011 0:05:12] Video Bitrate Desired: 2222 kbit/s---[Information] [11.07.2011 0:05:12] Video Bitrate Obtained (approximate): 2223 kbit/s--[Information] [11.07.2011 0:05:12] Postprocessing---[Information] Deleting intermediate files--[Information] [11.07.2011 0:05:12] Job completed

MediaInfo

Формат                           : Matroska
Размер файла                     : 2,19 Гбайт
Продолжительность                : 1 ч. 40 м.
Общий поток                      : 3120 Кбит/сек
Дата кодирования                 : UTC 2011-07-11 18:23:02
Программа кодирования            : mkvmerge v4.8.0 ('I Got The...') сборка от May 24 2011 03:12:58
Библиотека кодирования           : libebml v1.2.0 + libmatroska v1.1.0
Видео
Идентификатор                    : 1
Формат                           : AVC
Формат/Информация                : Advanced Video Codec
Профиль формата                  : High@L4.1
Параметр CABAC формата           : Да
Параметр ReFrames формата        : 9 кадры
Идентификатор кодека             : V_MPEG4/ISO/AVC
Продолжительность                : 1 ч. 40 м.
Битрейт                          : 2222 Кбит/сек
Ширина                           : 1056 пикс.
Высота                           : 440 пикс.
Соотношение сторон               : 2,40:1
Частота кадров                   : 23,976 кадр/сек
Цветовое пространство            : YUV
Подвыборка цветности             : 4:2:0
Битовая глубина                  : 8 бит
Тип развёртки                    : Прогрессивная
Бит/(Пиксели*Кадры)              : 0.199
Размер потока                    : 1,52 Гбайт (69%)
Библиотека кодирования           : x264 core 115 r1995 c1e60b9
Настройки программы              : cabac=1 / ref=9 / deblock=1:-3:-2 / analyse=0x3:0x133 / me=umh / subme=10 / psy=1 / psy_rd=1.06:0.10 / mixed_ref=0 / me_range=32 / chroma_me=1 / trellis=2 / 8x8dct=1 / cqm=0 / deadzone=21,11 / fast_pskip=0 / chroma_qp_offset=-3 / threads=3 / sliced_threads=0 / nr=0 / decimate=0 / interlaced=0 / bluray_compat=0 / constrained_intra=0 / bframes=9 / b_pyramid=2 / b_adapt=2 / b_bias=0 / direct=3 / weightb=1 / open_gop=0 / weightp=2 / keyint=250 / keyint_min=23 / scenecut=40 / intra_refresh=0 / rc=2pass / mbtree=0 / bitrate=2222 / ratetol=1.0 / qcomp=0.60 / qpmin=0 / qpmax=69 / qpstep=4 / cplxblur=20.0 / qblur=0.5 / ip_ratio=1.40 / pb_ratio=1.30 / aq=1:0.80
Язык                             : English
Аудио #1
Идентификатор                    : 2
Формат                           : AC-3
Формат/Информация                : Audio Coding 3
Расширение режима                : CM (complete main)
Идентификатор кодека             : A_AC3
Продолжительность                : 1 ч. 40 м.
Вид битрейта                     : Постоянный
Битрейт                          : 448 Кбит/сек
Канал(ы)                         : 6 канала(ов)
Расположение каналов             : Front: L C R, Side: L R, LFE
Частота                          : 48,0 КГц
Битовая глубина                  : 16 бит
Метод сжатия                     : С потерями
Размер потока                    : 322 Мбайт (14%)
Заголовок                        : Дублированный перевод
Язык                             : Russian
Аудио #2
Идентификатор                    : 3
Формат                           : AC-3
Формат/Информация                : Audio Coding 3
Расширение режима                : CM (complete main)
Идентификатор кодека             : A_AC3
Продолжительность                : 1 ч. 40 м.
Вид битрейта                     : Постоянный
Битрейт                          : 448 Кбит/сек
Канал(ы)                         : 6 канала(ов)
Расположение каналов             : Front: L C R, Side: L R, LFE
Частота                          : 48,0 КГц
Битовая глубина                  : 16 бит
Метод сжатия                     : С потерями
Размер потока                    : 322 Мбайт (14%)
Заголовок                        : Оригинал
Язык                             : English
Текст #1
Идентификатор                    : 4
Формат                           : UTF-8
Идентификатор кодека             : S_TEXT/UTF8
Идентификатор кодека/Информация  : UTF-8 Plain Text
Заголовок                        : Субтитры #1
Язык                             : English
Текст #2
Идентификатор                    : 5
Формат                           : UTF-8
Идентификатор кодека             : S_TEXT/UTF8
Идентификатор кодека/Информация  : UTF-8 Plain Text
Заголовок                        : Субтитры #2
Язык                             : Russian
Меню
00:00:00.000                     : en:00:00:00.000
00:08:27.215                     : en:00:08:27.215
00:15:49.114                     : en:00:15:49.114
00:24:23.211                     : en:00:24:23.211
00:33:14.659                     : en:00:33:14.659
00:40:46.569                     : en:00:40:46.569
00:49:13.700                     : en:00:49:13.700
00:59:23.893                     : en:00:59:23.893
01:09:30.749                     : en:01:09:30.749
01:18:28.453                     : en:01:18:28.453
01:29:59.394                     : en:01:29:59.394
01:38:11.886                     : en:01:38:11.886
Скачать

Скачать торрент!

Как скачивать? · Что такое торрент? · Рейтинг и ограничения

Сайт не распространяет и не хранит электронные версии произведений, а лишь предоставляет доступ к создаваемому пользователями каталогу ссылок на торрент-файлы, которые содержат только списки хеш-сумм

[Профиль] [ЛС]
Показать сообщения:    
Ответить на тему

Текущее время: Сегодня 22:34

Часовой пояс: GMT + 4



Вы не можете начинать темы
Вы не можете отвечать на сообщения
Вы не можете редактировать свои сообщения
Вы не можете удалять свои сообщения
Вы не можете голосовать в опросах
Вы не можете прикреплять файлы к сообщениям
Вы не можете скачивать файлы