Дети-самоубийцы / Demons Never Die (Арджун Роуз / Arjun Rose) [2011, Великобритания, ужасы, HDRip] VO

Ответить на тему
 
Автор Сообщение

user ®

Стаж: 7 лет 7 месяцев

Сообщений: 20008

Пост Пост: #1 от 06-Май-2012 20:16

[Цитировать]

Дети-самоубийцы / Demons Never Die

Страна: Великобритания
Жанр: ужасы
Год выпуска: 2011
Продолжительность: 01:33:01-Перевод: Одноголосый закадровый
Cубтитры: нет
Режиссер: Арджун Роуз / Arjun Rose-В ролях:
Роберт Шиэн, Эшли Уолтерс, Тулиса Контоcтавлос, Джейсон Маза, Регги Йэтс, Шаника Уоррен, Мерленд, Джейкоб Андерсон, Дженни Жак, Эмма Ригби
-Описание:После смерти девушки Амбер, которая покончила с собой, ее друзья в порыве сострадания и солидарности создают и присоединяются к договору о совместном самоубийстве. Но вот незадача, те кто вошли в список начинают по одному умирать от руки некоего убийцы в маске. Дети-самоубийцы наконец-то понимают цену жизни, но не слишком ли поздно? Тем более жить им или не жить уже решают не они…-Кинопоиск | Imdb | Сэмпл-Качество видео: HDRip
Формат видео: AVI
Видео: 640x272 (2.35:1), 24.000 fps, XviD build 64 ~981 kbps avg, 0.23 bit/pixel
Аудио: 48 kHz, MPEG Layer 3, 2 ch, ~128.00 kbps avg |VO|

MediaInfo

Complete name                            : \Demons.Never.Die.2011_Bentley_745.avi
Format                                   : AVI
Format/Info                              : Audio Video Interleave
File size                                : 744 MiB
Duration                                 : 1h 33mn
Overall bit rate                         : 1 119 Kbps
Writing application                      : VirtualDubMod 1.5.10.3 | www.virtualdub-fr.org || (build 2550/release)
Writing library                          : VirtualDubMod build 2550/release
Video
ID                                       : 0
Format                                   : MPEG-4 Visual
Format profile                           : Advanced Simple@L5
Format settings, BVOP                    : 1
Format settings, QPel                    : No
Format settings, GMC                     : No warppoints
Format settings, Matrix                  : Custom
Codec ID                                 : XVID
Codec ID/Hint                            : XviD
Duration                                 : 1h 33mn
Bit rate                                 : 982 Kbps
Width                                    : 640 pixels
Height                                   : 272 pixels
Display aspect ratio                     : 2.35:1
Frame rate                               : 24.000 fps
Color space                              : YUV
Chroma subsampling                       : 4:2:0
Bit depth                                : 8 bits
Scan type                                : Progressive
Compression mode                         : Lossy
Bits/(Pixel*Frame)                       : 0.235
Stream size                              : 653 MiB (88%)
Writing library                          : XviD 64
Audio
ID                                       : 1
Format                                   : MPEG Audio
Format version                           : Version 1
Format profile                           : Layer 3
Codec ID                                 : 55
Codec ID/Hint                            : MP3
Duration                                 : 1h 33mn
Bit rate mode                            : Constant
Bit rate                                 : 128 Kbps
Channel(s)                               : 2 channels
Sampling rate                            : 48.0 KHz
Compression mode                         : Lossy
Stream size                              : 85.2 MiB (11%)
Alignment                                : Aligned on interleaves
Interleave, duration                     : 42 ms (1.00 video frame)
Interleave, preload duration             : 504 ms

Скриншоты


Скачать

Скачать торрент!

Как скачивать? · Что такое торрент? · Рейтинг и ограничения

Сайт не распространяет и не хранит электронные версии произведений, а лишь предоставляет доступ к создаваемому пользователями каталогу ссылок на торрент-файлы, которые содержат только списки хеш-сумм

[Профиль] [ЛС]
Показать сообщения:    
Ответить на тему

Текущее время: Сегодня 02:24

Часовой пояс: GMT + 4



Вы не можете начинать темы
Вы не можете отвечать на сообщения
Вы не можете редактировать свои сообщения
Вы не можете удалять свои сообщения
Вы не можете голосовать в опросах
Вы не можете прикреплять файлы к сообщениям
Вы не можете скачивать файлы