Ромовый дневник / The Rum Diary (Брюс Робинсон / Bruce Robinson) [2011, США, драма, комедия, приключения, BDRip] VO (А. Киреев по переводу Гоблина) + Sub Rus + Original Eng

Ответить на тему
 
Автор Сообщение

user ®

Стаж: 8 лет 4 месяца

Сообщений: 20007

Пост Пост: #1 от 06-Май-2012 19:49

[Цитировать]

Ромовый дневник / The Rum Diary Страна: США
Жанр: драма, комедия, приключения
Год выпуска: 2011
Продолжительность: 01:59:58-Перевод: Одноголосый закадровый /А. Киреев по переводу Дмитрия Goblin'a Пучкова/
Cубтитры: русские (отдельным файлом/по Гоблину)-Режиссер: Брюс Робинсон / Bruce Robinson
В ролях: Джонни Депп, Майкл Рисполи, Аарон Экхарт, Эмбер Хёрд, Джованни Рибизи, Ричард Дженкинс, Амори Ноласко, Маршалл Белл, Энди Умбергер, Билл Смитрович
Описание: Конец 50-х. Талантливый журналист Пол Кэмп (Джонни Дэпп), которого достала лживая глянцевая жизнь Нью-Йорка, бросает работу в престижном издании и уезжает в Пуэрто-Рико, где ром льется рекой, где дешево все — машины, яхты, девушки, здесь саму жизнь продают за копейки...
Фильм поставлен по одноименному роману культового Хантера С. Томпсона и является приквелом другого культового фильма "Страх и ненависть в Лас Вегасе". Джонни Дэпп, Карибы, красотки, яхты и интриги — идеальное кино для просмотра с девушкой. © Goblin
- | -Рейтинг R - Детям до 17 лет обязательно присутствие родителей

- -Релиз подготовлен
Качество видео: BDRip ([url=http://***/forum/viewtopic.php?t=3933493]источник[/url])
Формат видео: AVI
Видео: 720x384 (1.88:1), 23.976 fps, XviD build 63 ~1809 kbps avg, 0.27 bit/pixel
Аудио #1: Russian 48,0 kHz, AC3 Dolby Digital, 3/2 (L,C,R,l,r) + LFE ch, ~448 kbps avg
Аудио #2: English 48,0 kHz, AC3 Dolby Digital, 3/2 (L,C,R,l,r) + LFE ch, ~448 kbps avg (отдельным файлом)

Формат субтитров: softsub (SRT)-

MediaInfo

Формат : AVI
Формат/Информация : Audio Video Interleave
Размер файла : 1,90 Гбайт
Продолжительность : 1 ч. 59 м.
Общий поток : 2266 Кбит/сек
Название фильма : Romoviy dnevnik.chopper887
Режиссёр : chopper887
Жанр : Adventure/Drama
Программа кодирования : VirtualDubMod 1.5.10.2 (build 2540/release)
Библиотека кодирования : VirtualDubMod build 2540/release
Формат оригинала/Имя : Movie
Видео
Идентификатор : 0
Формат : MPEG-4 Visual
Профиль формата : Advanced Simple@L5
Параметр BVOP формата : 2
Параметр QPel формата : Нет
Параметр GMC формата : Без точки перехода
Параметр матрицы формата : Выборочная
Идентификатор кодека : XVID
Идентификатор кодека/Подсказка : XviD
Продолжительность : 1 ч. 59 м.
Битрейт : 1809 Кбит/сек
Ширина : 720 пикс.
Высота : 384 пикс.
Соотношение сторон : 1,875
Частота кадров : 23,976 кадр/сек
Цветовое пространство : YUV
Подвыборка цветности : 4:2:0
Битовая глубина : 8 бит
Тип развёртки : Прогрессивная
Метод сжатия : С потерями
Бит/(Пиксели*Кадры) : 0.273
Размер потока : 1,52 Гбайт (80%)
Библиотека кодирования : XviD 63
Аудио
Идентификатор : 1
Формат : AC-3
Формат/Информация : Audio Coding 3
Расширение режима : CM (complete main)
Идентификатор кодека : 2000
Продолжительность : 1 ч. 59 м.
Вид битрейта : Постоянный
Битрейт : 448 Кбит/сек
Каналы : 6 каналов
Расположение каналов : Front: L C R, Side: L R, LFE
Частота : 48,0 КГц
Битовая глубина : 16 бит
Метод сжатия : С потерями
Размер потока : 384 Мбайт (20%)
Выравнивание : Разделение по промежуткам
Продолжительность промежутка : 42 мс. (1,00 видеокадр)
Время предзагрузки промежутка : 500 ms

Скриншот c названием фильма

Скриншоты

Скачать

Скачать торрент!

Как скачивать? · Что такое торрент? · Рейтинг и ограничения

Сайт не распространяет и не хранит электронные версии произведений, а лишь предоставляет доступ к создаваемому пользователями каталогу ссылок на торрент-файлы, которые содержат только списки хеш-сумм

[Профиль] [ЛС]
Показать сообщения:    
Ответить на тему

Текущее время: Сегодня 02:54

Часовой пояс: GMT + 4



Вы не можете начинать темы
Вы не можете отвечать на сообщения
Вы не можете редактировать свои сообщения
Вы не можете удалять свои сообщения
Вы не можете голосовать в опросах
Вы не можете прикреплять файлы к сообщениям
Вы не можете скачивать файлы