Боже, Благослови Америку / God Bless America (Боб Голдтуэйт / Bobcat Goldthwait) [2011, США, триллер, чёрная комедия, криминал, HDTVRip-AVC] DVO *OzzTV*

Ответить на тему
 
Автор Сообщение

user ®

Стаж: 7 лет 10 месяцев

Сообщений: 20008

Пост Пост: #1 от 06-Май-2012 19:49

[Цитировать]

Боже, Благослови АмерикуGod Bless America-«Taking out the trash, one jerk at a time.»- Год выпуска: 2011
Страна: США
Жанр: триллер, чёрная комедия, криминал
Продолжительность: 01:44:24
Перевод: Профессиональный (двухголосый закадровый) + Английская дорожка
Субтитры: нет-Режиссер:
  • Боб Голдтуэйт / Bobcat Goldthwait
В ролях:
  • Джоэль Мюррей, Тара Барр, Маккензи Брук Смит, Мелинда Пейдж Хэмилтон, Рич МакДональд, Андреа Харпер, Дэвид Менденхолл, Джулиана Акоста и др.
-Описание: Фрэнк просто выдохся: сосед-невежа, постоянный плач ребенка, глупая болтовня коллег, и в довершение всего — ещё и опухоль мозга. Достав пистолет, уставший от жизни герой находит для себя неожиданного друга и союзника по имени Рокси. Это девушка-студентка, проявляющая нетерпимость к идиотам вокруг и мыслящая в точности, как и Фрэнк. Он даёт ей уроки стрельбы, а она ему — цели, которые нужно поразить.- -Качество: HDTVRip (720p)
Формат: AVC
Видео кодек: H.264
Аудио кодек: AC3
Видео: 4200 Кбит/сек, 1280x544 (2:35:1), 23.976 fps
Аудио: AC3, (2 ch), 160 kb/s
Аудио: AC3, (6 Ch), 384 kb/s
-Переведено и озвучено: Ozz.Tv совместно с Люмпены Продакшн
Перевод: KingFisher
Роли озвучивали: Ирина Воронова и Алексей Серегин-
Внимание! В фильме присутствует ненормативная лексика в необходимом и достаточном количестве.-

Mediainfo

General
Unique ID : 217753548453198962431565260443689723937 (0xA3D1CED590E8827B911421626450A821)
Complete name : D:\Фильмы\God.Bless.America.2011.HDTVRiP720.mkv
Format : Matroska
File size : 3.43 GiB
Duration : 1h 44mn
Overall bit rate : 4 703 Kbps
Encoded date : UTC 2012-05-02 22:20:21
Writing application : mkvmerge v5.5.0 ('Healer') built on Apr 6 2012 21:43:24
Writing library : libebml v1.2.3 + libmatroska v1.3.0
Video
ID : 1
Format : AVC
Format/Info : Advanced Video Codec
Format profile : High@L4.1
Format settings, CABAC : Yes
Format settings, ReFrames : 1 frame
Format settings, GOP : M=1, N=2
Codec ID : V_MPEG4/ISO/AVC
Duration : 1h 44mn
Bit rate : 4 200 Kbps
Width : 1 280 pixels
Height : 544 pixels
Display aspect ratio : 2.35:1
Frame rate : 23.976 fps
Color space : YUV
Chroma subsampling : 4:2:0
Bit depth : 8 bits
Scan type : Progressive
Bits/(Pixel*Frame) : 0.252
Stream size : 2.96 GiB (86%)
Writing library : x264 core 68 r1195bm 5d75a9b
Encoding settings : cabac=1 / ref=1 / deblock=1:0:0 / analyse=0x3:0x13 / me=umh / subme=7 / psy_rd=0.0:0.0 / mixed_ref=0 / me_range=16 / chroma_me=1 / trellis=1 / 8x8dct=1 / cqm=0 / deadzone=21,11 / chroma_qp_offset=0 / threads=1 / thread_queue=1 / nr=0 / decimate=1 / mbaff=0 / bframes=0 / keyint=250 / keyint_min=25 / scenecut=40 / rc=abr / bitrate=4200 / ratetol=1.0 / qcomp=0.60 / qpmin=10 / qpmax=51 / qpstep=4 / ip_ratio=1.40 / aq=2:1.00
Audio #1
ID : 2
Format : AC-3
Format/Info : Audio Coding 3
Mode extension : CM (complete main)
Codec ID : A_AC3
Duration : 1h 44mn
Bit rate mode : Constant
Bit rate : 160 Kbps
Channel(s) : 2 channels
Channel positions : Front: L R
Sampling rate : 44.1 KHz
Bit depth : 16 bits
Compression mode : Lossy
Delay relative to video : 3s 109ms
Stream size : 119 MiB (3%)
Title : Ozz
Language : Russian
Audio #2
ID : 3
Format : AC-3
Format/Info : Audio Coding 3
Mode extension : CM (complete main)
Codec ID : A_AC3
Duration : 1h 44mn
Bit rate mode : Constant
Bit rate : 384 Kbps
Channel(s) : 6 channels
Channel positions : Front: L C R, Side: L R, LFE
Sampling rate : 48.0 KHz
Bit depth : 16 bits
Compression mode : Lossy
Stream size : 287 MiB (8%)
Language : English

Скриншот с названием

Скриншоты


Скачать

Скачать торрент!

Как скачивать? · Что такое торрент? · Рейтинг и ограничения

Сайт не распространяет и не хранит электронные версии произведений, а лишь предоставляет доступ к создаваемому пользователями каталогу ссылок на торрент-файлы, которые содержат только списки хеш-сумм

[Профиль] [ЛС]
Показать сообщения:    
Ответить на тему

Текущее время: Сегодня 00:24

Часовой пояс: GMT + 4



Вы не можете начинать темы
Вы не можете отвечать на сообщения
Вы не можете редактировать свои сообщения
Вы не можете удалять свои сообщения
Вы не можете голосовать в опросах
Вы не можете прикреплять файлы к сообщениям
Вы не можете скачивать файлы