Бедная богатая девочка / Young Adult (Джейсон Райтман / Jason Reitman) [2011, США, драма, комедия, BDRip] DUB + Original (Eng) + Subs (rus,eng,ukr)

Ответить на тему
 
Автор Сообщение

user ®

Стаж: 7 лет 7 месяцев

Сообщений: 20008

Пост Пост: #1 от 06-Май-2012 19:49

[Цитировать]

БЕДНАЯ БОГАТАЯ ДЕВОЧКА / Young Adult
«Все становятся старше. Но не все взрослеют.»
-Страна: США
Студии: Paramount Pictures, Denver and Delilah Productions, Indian Paintbrush
Жанр: драма, комедия
Год выпуска: 2011
Продолжительность: 01:33:39-Перевод: профессиональный (дублированный) лицензия
Субтитры: Rus (Full) + Eng (Full+SDH) + Ukr (Full) отдельно
Оригинальная аудиодорожка: английский-Режиссёр: Джейсон Райтман / Jason Reitman-В ролях: Шарлиз Терон, Пэттон Освальт, Патрик Уилсон, Элизабет Ризер, Коллетт Вульф, Джилл Айкенберри, Ричард Бекинс, Мэри Бет Херт, Кейт Ноулин, Вирджиния ДаРе Полин, Ребекка Харт, Луиса Краузе, Элизабет Уорд Лэнд, Брайан МакИлхэйни, Эттьенн Парк, Джон Форест, Брэйди Смит, Тимоти Янг, Эрин Майя Дарк, Джи Янг Хань, Элла Рэй Пек, Алейша Аллен, Мэтт Уилсон, Орла Кэссиди, Чарльз Текман, Эмили Миде, Лендин Банкс, Фредрика Дьюкс.-Описание:
Трагикомедия про писательницу, подрабатывающую литературным негром и выдающую тинейджерские романы, отправившуюся в родной город на поиски бывшего бойфренда, который успел обзавестись семьей и ребенком.
-6.7/10 (21883) 6.391 (3225)-Rip by [url=http://***/forum/profile.php?mode=viewprofile&u=15623378]ZNG505[/url]
Качество видео: BDRip (Исходник Blu-ray disc)
Формат файла: AVI-Видео: XviD, 704x400 (16:9), 23.976 fps, 2396 kbps avg, 0.355 bit/pixel
Аудио 1: 48 kHz, AC3 Dolby Digital, 3/2 (L,C,R,l,r) + LFE ch, 448 kbps avg (Rus DUB)
Аудио 2: 48 kHz, AC3 Dolby Digital, 3/2 (L,C,R,l,r) + LFE ch, 448 kbps avg (Original Eng)
Формат субтитров: softsub (SRT)-

MediaInfo

Общее
Полное имя : D:\Torrent Rutracker\Young.Adult.2011.DUAL.XviD.AC3.BDRip._by.ZNG505\Young.Adult.2011.DUAL.XviD.AC3.BDRip.avi
Формат : AVI
Формат/Информация : Audio Video Interleave
Профиль формата : OpenDML
Размер файла : 2,16 Гбайт
Продолжительность : 1 ч. 33 м.
Общий поток : 3309 Кбит/сек
Программа кодирования : VirtualDubModRus 1.5.10.2 (build 2542/release)
Библиотека кодирования : VirtualDubMod build 2542/release
Видео
Идентификатор : 0
Формат : MPEG-4 Visual
Профиль формата : Advanced Simple@L5
Параметр BVOP формата : 1
Параметр QPel формата : Нет
Параметр GMC формата : Без точки перехода
Параметр матрицы формата : Выборочная
Идентификатор кодека : XVID
Идентификатор кодека/Подсказка : XviD
Продолжительность : 1 ч. 33 м.
Битрейт : 2396 Кбит/сек
Ширина : 704 пикселя
Высота : 400 пикселей
Соотношение сторон : 16:9
Частота кадров : 23,976 кадра/сек
Цветовое пространство : YUV
Субдискретизация насыщенности : 4:2:0
Битовая глубина : 8 бит
Тип развёртки : Прогрессивная
Метод сжатия : С потерями
Бит/(Пиксели*Кадры) : 0.355
Размер потока : 1,57 Гбайт (72%)
Библиотека кодирования : XviD 65
Аудио #1
Идентификатор : 1
Формат : AC-3
Формат/Информация : Audio Coding 3
Расширение режима : CM (complete main)
Идентификатор кодека : 2000
Продолжительность : 1 ч. 33 м.
Вид битрейта : Постоянный
Битрейт : 448 Кбит/сек
Каналы : 6 каналов
Расположение каналов : Front: L C R, Side: L R, LFE
Частота : 48,0 КГц
Битовая глубина : 16 бит
Метод сжатия : С потерями
Размер потока : 300 Мбайт (14%)
Выравнивание : Разделение по промежуткам
Продолжительность промежутка : 42 мс. (1,00 видеокадр)
Время предзагрузки промежутка : 500 мс.
Заголовок : Rus DUB
Аудио #2
Идентификатор : 2
Формат : AC-3
Формат/Информация : Audio Coding 3
Расширение режима : CM (complete main)
Идентификатор кодека : 2000
Продолжительность : 1 ч. 33 м.
Вид битрейта : Постоянный
Битрейт : 448 Кбит/сек
Каналы : 6 каналов
Расположение каналов : Front: L C R, Side: L R, LFE
Частота : 48,0 КГц
Битовая глубина : 16 бит
Метод сжатия : С потерями
Размер потока : 300 Мбайт (14%)
Выравнивание : Разделение по промежуткам
Продолжительность промежутка : 42 мс. (1,00 видеокадр)

Скриншот c названием фильма

Скриншоты

Скачать

Скачать торрент!

Как скачивать? · Что такое торрент? · Рейтинг и ограничения

Сайт не распространяет и не хранит электронные версии произведений, а лишь предоставляет доступ к создаваемому пользователями каталогу ссылок на торрент-файлы, которые содержат только списки хеш-сумм

[Профиль] [ЛС]
Показать сообщения:    
Ответить на тему

Текущее время: Сегодня 18:22

Часовой пояс: GMT + 4



Вы не можете начинать темы
Вы не можете отвечать на сообщения
Вы не можете редактировать свои сообщения
Вы не можете удалять свои сообщения
Вы не можете голосовать в опросах
Вы не можете прикреплять файлы к сообщениям
Вы не можете скачивать файлы