Суки / Perras (Гильермо Риос / Guillermo Rios) [2011, Мексика, триллер, драма, DVDRip] MVO [SnowRecords]

Ответить на тему
 
Автор Сообщение

user ®

Стаж: 7 лет 7 месяцев

Сообщений: 20008

Пост Пост: #1 от 06-Май-2012 19:49

[Цитировать]

Суки / Perras- Страна: Мексика
Жанр: Триллер, драма
Год выпуска: 2011
Продолжительность: 01:36:32
Перевод: Любительский (многоголосый) [SnowRecords]
Cубтитры: Нет
Режиссер: Гильермо Риос / Guillermo Rios
В ролях: Клаудия Зепеда, Карен Де Ла Хойа, Скарлет Дергал, Алёнка Риос, Степх Боумелкроуд, Андреа Педреро, Кариам Кастро, Дэнис Монтес, Ева Луна Маренко, Наталия Зурита
Описание: Стерва, модница, заучка, тихоня, слепая - что объединяет всех этих девушек? Каждая из них подозревается в совершении зверского преступления, произошедшего в школе. И пока десять учениц ждут приезда полиции в одном из классов, мы погружаемся в воспоминания и эмоции каждой из них, полные разврата, насилия и душевных переживаний, вместе с героинями пытаясь разобраться, кто же виноват.
Сэмпл: http://multi-up.com/696672
Качество видео: DVDRip
Формат видео: AVI
Видео: 720x304 (2.37:1), 23.976 fps, XviD build 50 ~1707 kbps avg, 0.33 bit/pixel
Аудио: 48 kHz, AC3 Dolby Digital, 3/2 (L,C,R,l,r) + LFE ch, ~448 kbps

MediaInfo

General
Complete name                            : C:\Суки.2011.DVDRip.avi
Format                                   : AVI
Format/Info                              : Audio Video Interleave
File size                                : 1.46 GiB
Duration                                 : 1h 36mn
Overall bit rate                         : 2 165 Kbps
Writing application                      : VirtualDubModRus 1.5.10.2 (build 2542/release)
Writing library                          : VirtualDubMod build 2542/release
Video
ID                                       : 0
Format                                   : MPEG-4 Visual
Format profile                           : Advanced Simple@L5
Format settings, BVOP                    : 1
Format settings, QPel                    : No
Format settings, GMC                     : No warppoints
Format settings, Matrix                  : Custom
Codec ID                                 : XVID
Codec ID/Hint                            : XviD
Duration                                 : 1h 36mn
Bit rate                                 : 1 707 Kbps
Width                                    : 720 pixels
Height                                   : 304 pixels
Display aspect ratio                     : 2.35:1
Frame rate                               : 23.976 fps
Color space                              : YUV
Chroma subsampling                       : 4:2:0
Bit depth                                : 8 bits
Scan type                                : Progressive
Compression mode                         : Lossy
Bits/(Pixel*Frame)                       : 0.325
Stream size                              : 1.15 GiB (79%)
Writing library                          : XviD 1.2.1 (UTC 2008-12-04)
Audio
ID                                       : 1
Format                                   : AC-3
Format/Info                              : Audio Coding 3
Mode extension                           : CM (complete main)
Codec ID                                 : 2000
Duration                                 : 1h 36mn
Bit rate mode                            : Constant
Bit rate                                 : 448 Kbps
Channel(s)                               : 6 channels
Channel positions                        : Front: L C R, Side: L R, LFE
Sampling rate                            : 48.0 KHz
Bit depth                                : 16 bits
Compression mode                         : Lossy
Stream size                              : 309 MiB (21%)
Alignment                                : Split accross interleaves
Interleave, duration                     : 42 ms (1.00 video frame)
Interleave, preload duration             : 500 ms

Скриншот c названием фильма

Скриншоты

Скачать

Скачать торрент!

Как скачивать? · Что такое торрент? · Рейтинг и ограничения

Сайт не распространяет и не хранит электронные версии произведений, а лишь предоставляет доступ к создаваемому пользователями каталогу ссылок на торрент-файлы, которые содержат только списки хеш-сумм

[Профиль] [ЛС]
Показать сообщения:    
Ответить на тему

Текущее время: Сегодня 15:56

Часовой пояс: GMT + 4



Вы не можете начинать темы
Вы не можете отвечать на сообщения
Вы не можете редактировать свои сообщения
Вы не можете удалять свои сообщения
Вы не можете голосовать в опросах
Вы не можете прикреплять файлы к сообщениям
Вы не можете скачивать файлы