Шкала агрессии / The Aggression Scale (Стивен С. Миллер / Steven C. Miller) [2012, США, Боевик, Триллер, HDRip] VO Хихикающий Доктор Original Eng

Ответить на тему
 
Автор Сообщение

user ®

Стаж: 7 лет 7 месяцев

Сообщений: 20008

Пост Пост: #1 от 06-Май-2012 19:44

[Цитировать]

Шкала агрессии / The Aggression Scale
Страна: США
Жанр: Боевик, Триллер
Год выпуска: 2012
Продолжительность: 01:25:16
Перевод: Одноголосый закадровый Хихикающий Доктор
Cубтитры: нет
Оригинальная аудиодорожка: английский
Режиссер: Стивен С. Миллер / Steven C. Miller
В ролях: Бойд Кестнер, Дерек Мирс, Джейкоб Рейнольдс, Джозеф МакКелхир, Дэна Эшбрук, Лиза Ротонди, Райан Хартвиг, Рэй Уайз, Фаббианн Терез, Эбен Костбар...
Описание: Босс мафии обнаруживает, что у него стырили полмиллиона долларов и отправляет четырех наемных убийц отправить "сообщение" семьям похитителей. Однако в одном из домов гангстеры встречают подростка по имени Оуэн. Оуэн имеет склонность к насилию и умеет создавать смертельные ловушки...
Релиз группы:
Сэмпл: http://multi-up.com/697269
Качество видео: HDRip (исходник не известен)
Формат видео: AVI
Видео: Xvid 720x304 23.98fps 1 835 Kbps
Аудио: MPEG Audio Layer 3 44100Hz stereo 192kbps rus
Аудио 2: Dolby AC3 48000Hz 6ch 256kbps eng

MediaInfo

Format : AVI
Format/Info : Audio Video Interleave
File size : 1.37 GiB
Duration : 1h 25mn
Overall bit rate : 2 300 Kbps
Writing application : VirtualDubMod 1.5.10.2 (build 2540/release)
Writing library : VirtualDubMod build 2540/release
Video
ID : 0
Format : MPEG-4 Visual
Format profile : Advanced Simple@L5
Format settings, BVOP : Yes
Format settings, QPel : No
Format settings, GMC : No warppoints
Format settings, Matrix : Default (H.263)
Muxing mode : Packed bitstream
Codec ID : XVID
Codec ID/Hint : XviD
Duration : 1h 25mn
Bit rate : 1 835 Kbps
Width : 720 pixels
Height : 304 pixels
Display aspect ratio : 2.35:1
Frame rate : 23.976 fps
Resolution : 8 bits
Colorimetry : 4:2:0
Scan type : Progressive
Bits/(Pixel*Frame) : 0.350
Stream size : 1.09 GiB (80%)
Writing library : XviD 1.2.1 (UTC 2008-12-04)
Audio #1
ID : 1
Format : MPEG Audio
Format version : Version 1
Format profile : Layer 3
Codec ID : 55
Codec ID/Hint : MP3
Duration : 1h 25mn
Bit rate mode : Constant
Bit rate : 192 Kbps
Channel(s) : 2 channels
Sampling rate : 44.1 KHz
Video delay : 123ms
Stream size : 117 MiB (8%)
Alignment : Split accross interleaves
Interleave, duration : 26 ms (0.63 video frame)
Interleave, preload duration : 512 ms
Audio #2
ID : 2
Format : AC-3
Format/Info : Audio Coding 3
Codec ID : 2000
Duration : 1h 25mn
Bit rate mode : Constant
Bit rate : 256 Kbps
Channel(s) : 6 channels
Channel positions : Front: L C R, Surround: L R, LFE
Sampling rate : 48.0 KHz
Stream size : 156 MiB (11%)
Alignment : Split accross interleaves
Interleave, duration : 42 ms (1.00 video frame)
Interleave, preload duration : 500 ms

Скриншот c названием фильма

Скриншоты

Скачать

Скачать торрент!

Как скачивать? · Что такое торрент? · Рейтинг и ограничения

Сайт не распространяет и не хранит электронные версии произведений, а лишь предоставляет доступ к создаваемому пользователями каталогу ссылок на торрент-файлы, которые содержат только списки хеш-сумм

[Профиль] [ЛС]
Показать сообщения:    
Ответить на тему

Текущее время: Сегодня 20:19

Часовой пояс: GMT + 4



Вы не можете начинать темы
Вы не можете отвечать на сообщения
Вы не можете редактировать свои сообщения
Вы не можете удалять свои сообщения
Вы не можете голосовать в опросах
Вы не можете прикреплять файлы к сообщениям
Вы не можете скачивать файлы