Детройт 1-8-7 / Detroit 1-8-7 (Кевин Хукс, Дин Уайт) [2010-2011 г., драма, криминал, триллер, WEB-DL, 720p] (Novafilm)

Ответить на тему
 
Автор Сообщение

DeTorquemada ®

Пол:

Стаж: 4 года 10 месяцев

Сообщений: 6

Откуда: СССР

Пост Пост: #1 от 06-Мар-2012 22:09

[Цитировать]

Детройт 1-8-7 / Detroit 1-8-7
Год выпуска: 2010-2011
Страна: США
Жанр: драма, криминал, триллер
Продолжительность: 18x~00:43:00
Перевод: Профессиональный (многоголосый, закадровый)
Режиссер: Кевин Хукс, Дин Уайт
В ролях: Майкл Империоли (Detective Louis Fitch), Натали Мартинес (Detective Ariana Sanchez), Аиша Хиндс (Lieutenant Maureen Mason), Шон Мажумдер (Detective Vikram Mahajan), Джон Майкл Хилл (Detective Damon Washington), Джеймс МакДэниэл (Sergeant Jesse Longford), Ди Джей Котрона (Detective John Stone) и др.
Описание: Что значит быть полицейским на самых опасных улицах Америки? Этот сериал, снятый в документальном стиле, предлагает зрителям через объектив видеокамеры стать прямым свидетелем событий и повседневной жизни отдела убийств города Детройт. Камеры следуют за детективами везде – на работе и в личной жизни, и от них не скроется ничего – опасные расследования, откровения, неприятности и героизм лучших детективов самого криминального города Америки.

Названия эпизодов

1. Pilot / Пилотная серия
2. Local Hero. Overboard / Местная знаменитость. За бортом
3. Nobody's Home. Unknown Soldier / Ничей дом. Неизвестный солдат
4. Royal Bubbles. Needle Drop / Убийство на автомойке. Дело диджея
5. Murder in GreekTown. High School Confidential / Убийство в Маленькой Греции. Школьные тайны
6. Lost Child. Murder 101 / Потерянный ребенок. Элементарное убийство
7. Broken Engagement. Trashman / Разорванная помолвка. Мусор
8. Déjà Vu. All In / Дежа-вю. Ва-банк
9. Home Invasion. Drive-By / Вторжение. Случайное убийство
10. Shelter / Убежище
11. Ice Man. Malibu / Замороженный. Малибу
12. Key to the City / Ключ от города
13. Road to Nowhere / Дорога в никуда
14. Beaten. Cover Letter / Бой насмерть. Письмо
15. Legacy. Drag City / Наследие. Личина
16. Stone Cold / Стоуну холодно
17. Motor City Blues / Блюз «Города моторов»
18. Blackout / Затемнение

Описание эпизодов

Эпизод 1 В пилотной серии детективы Вашингтон и Фитч расследуют двойное убийство в аптеке. Сорвалась кража наркотиков или здесь случилось нечто иное? Тем временем Лонгфорд и Махаджан пытаются выйти на след убийцы адвоката, у которого было много врагов.
Эпизод 2 Отряд расследует дело звездного футболиста, убитого на самом старте блестящей карьеры и жениха, пропавшего со свадебного парохода.
Эпизод 3 Самовольный поселенец в Бриктауне становится жертвой таинственного убийства, а классическое мошенничество с автомобилями стоит подростку жизни.
Эпизод 4 Две жертвы убийства и их двойные жизни – владелец автомойки и восходящая звезда хип-хопа. Расследования непредсказуемы.
Эпизод 5 Убийство в школе, где учится дочь лейтенанта Мэйсон. Над делом работают все детективы.
Эпизод 6 Загадочную смерть молодой женщины, связанную с неким ребенком, и убийство уборщика колледжа, напичканного наркотиками, объединяет одно – необычные мотивы.
Эпизод 7 Типичный случай или нечто особое? Детективы расследуют два запутанных убийства – разбирающейся в технологиях женщины-руководителя и молодого наркоторговца.
Эпизод 8 Интригующее место преступления с пропавшим телом и выигрышная комбинация, убившая игрока в покер. Улики есть, но ведущим дело детективам еще надо разгадать их смысл.
Эпизод 9 Невероятно: убийство богатого автопромышленника на пенсии и дерзкая пальба из автомобиля, жертвой которой стал подросток, совершены из одного пистолета.
Эпизод 10 Новые дела об убийстве с шокирующей развязкой – найдены тела молодой пары, пропавшей в 60-х годах и беременной латиноамериканки, жертвы жестокого убийства.
Эпизод 11 Детройт высвечивается в свете софитов, когда детективы выслеживают убийцу кинозвезды и расследуют гибель молодого бродяги.
Эпизод 12 Когда в семье беда, никто не остается безучастным. Лейтенант Мэйсон и детективы ведут расследование шокирующего убийства помощника прокурора.
Эпизод 13 В отношении Фитча ведется расследование по факту убийства. Тем временем сам детектив вместе с Вашингтоном ищет виновного в смерти троих человек.
Эпизод 14 Темные тайны раскрываются в ходе расследования убийства невесты боксера и забытом деле отца, жертвующего всем ради семьи.
Эпизод 15 Детективы пытаются понять, какие темные тайны стоят за смертью трансвестита и двух бандитов.
Эпизод 16 Убийство студентки сотрясает весь отдел.
Эпизод 17 Детективы пытаются двинуться дальше, но преступность в Детройте набирают обороты, и над Фитчем и его соратниками стягиваются темные тучи.
Эпизод 18 Фитч готовится дать отпор давнему противнику из Нью-Йорка, Альберту Стрэму. Жизнь детектива, его сына и коллег висит на волоске.

MI

General
Unique ID : 202766926925032254169913533950623967598 (0x988B7D585E0F2E25A98806DC04F7696E)
Complete name : detroit.1-8-7.s01e18.web-dl.720p.rus.eng.novafilm.tv.mkv
Format : Matroska
File size : 1.43 GiB
Duration : 43mn 30s
Overall bit rate : 4 719 Kbps
Encoded date : UTC 2011-06-02 15:57:40
Writing application : mkvmerge v2.9.0 ('Moanin'') built on May 22 2009 17:46:31
Writing library : libebml v0.7.7 + libmatroska v0.8.1
Video
ID : 1
Format : AVC
Format/Info : Advanced Video Codec
Format profile : High@L3.1
Format settings, CABAC : No
Format settings, ReFrames : 2 frames
Codec ID : V_MPEG4/ISO/AVC
Duration : 43mn 30s
Bit rate : 4 049 Kbps
Width : 1 280 pixels
Height : 720 pixels
Display aspect ratio : 16:9
Frame rate : 23.976 fps
Color space : YUV
Chroma subsampling : 4:2:0
Bit depth : 8 bits
Scan type : Progressive
Bits/(Pixel*Frame) : 0.183
Stream size : 1.23 GiB (86%)
Language : English
Color primaries : BT.709-5, BT.1361, IEC 61966-2-4, SMPTE RP177
Transfer characteristics : BT.709-5, BT.1361
Matrix coefficients : BT.709-5, BT.1361, IEC 61966-2-4 709, SMPTE RP177
Audio #1
ID : 2
Format : AC-3
Format/Info : Audio Coding 3
Mode extension : CM (complete main)
Codec ID : A_AC3
Duration : 43mn 30s
Bit rate mode : Constant
Bit rate : 192 Kbps
Channel(s) : 2 channels
Channel positions : Front: L R
Sampling rate : 48.0 KHz
Bit depth : 16 bits
Compression mode : Lossy
Stream size : 59.7 MiB (4%)
Language : Russian
Audio #2
ID : 3
Format : AC-3
Format/Info : Audio Coding 3
Mode extension : CM (complete main)
Codec ID : A_AC3
Duration : 43mn 30s
Bit rate mode : Constant
Bit rate : 384 Kbps
Channel(s) : 6 channels
Channel positions : Front: L C R, Side: L R, LFE
Sampling rate : 48.0 KHz
Bit depth : 16 bits
Compression mode : Lossy
Stream size : 119 MiB (8%)
Language : English
Качество: WEB-DL 720p
Формат: MKV
Видео кодек: H.26x
Аудио кодек: AC3
Видео: 1280×720 (1.78:1), 23.976 fps, 3854 kbps avg, 0,24 bit/pixel
Аудио: 48 kHz, AC3 Dolby Digital 2.0, 192 kbps

Скриншоты







Скачать

Скачать торрент!

Как скачивать? · Что такое торрент? · Рейтинг и ограничения

Сайт не распространяет и не хранит электронные версии произведений, а лишь предоставляет доступ к создаваемому пользователями каталогу ссылок на торрент-файлы, которые содержат только списки хеш-сумм


_________________
Один из тех невинных, бесхитростных, как дети, аморальных выродков, которые даже не подозревают о существовании добра и зла.
[Профиль] [ЛС]
Показать сообщения:    
Ответить на тему

Текущее время: Сегодня 18:04

Часовой пояс: GMT + 4



Вы не можете начинать темы
Вы не можете отвечать на сообщения
Вы не можете редактировать свои сообщения
Вы не можете удалять свои сообщения
Вы не можете голосовать в опросах
Вы не можете прикреплять файлы к сообщениям
Вы не можете скачивать файлы