Джордж Кавассилас - Презентация Сидней 21.03.2011 / George Kavassilas - Equinox Presentation [2011, Видеопрезентация, DVD5]

Ответить на тему
 
Автор Сообщение

Kassiopea ®

Стаж: 7 лет 7 месяцев

Сообщений: 1

Пост Пост: #1 от 07-Дек-2011 00:09

[Цитировать]

Джордж Кавассилас - Презентация Сидней 21.03.2011 / George Kavassilas - Equinox Presentation
Год выпуска: 2011
Страна: Австралия
Жанр: Видеопрезентация
Продолжительность: 05:25:31
Перевод: Любительcкий (одноголосый)
Русские субтитры: нет
Описание: 21 марта 2011 года в Сиднее (Австралия) Джордж Кавассилас (George Kavassilas) провёл очередную презентацию, посвящённую событиям на планете Земля, связанным с завершением 26-тысячного прецессионного цикла – EQUINOX PRESENTATION SYDNEY 2011.
В своей презентации Джордж Кавассилас рассказывает:
- кто мы такие и откуда приходим в нашу материальную Вселенную;
- о ценности нашей ДНК;
- как, кем и для чего была создана наша планета и кем она на самом деле является;
- о мужских и женских аспектах энергии;
- о волновой структуре света и дуальности;
- о процессах расширения и интеграции;
- о временных циклах, числе «пи» и золотом сечении;
- правду об Иисусе Христе и истинной Пресвятой Троице;
- о порталах и процессе вознесения;
- о мнимых богах 4-го измерения;
- об истории Луны и её воздействии на женскую психику;
- о плеядеанцах, создавших жизненные формы на Земле;
- о драконоподобных, пытающихся поработить человечество;
- о высшем Я и его земных воплощениях;
- о космических законах и о многом, многом другом.
Цель Кавассиласа – пробуждение внутренней силы и знания истинной природы в каждом человеке.
Доп. информация: Перевод и озвучка: Владимир Журавлев
Сэмпл: http://multi-up.com/567551
Качество: DVD5
Формат: DVD video
Видео кодек: MPEG2
Аудио кодек: AC3
Видео: 720x576 (PAL 16:9), 25,000 fps, MPEG-2 Video, ~ 1195 Kbps, 0.115 bit/pixel
Аудио: Русский: 48 kHz, AC-3, (L,R) 2ch, 192 kbps CBR [Любительский (одноголосый)]

MediaInfo

Общее
Полное имя : D:\Kavassilass DVD\DVD ДЖОРДЖ КАВАССИЛАС - Презентация Сидней 21.03.2011\VIDEO_TS\VIDEO_TS.BUP
Формат : DVD Video
Профиль формата : Menu
Размер файла : 18,0 Кбайт
Режим общего битрейта : Переменный
Видео
Идентификатор : 224 (0xE0)
Формат : MPEG Video
Версия формата : Version 2
Вид битрейта : Переменный
Ширина : 720 пикселей
Высота : 576 пикселей
Соотношение сторон : 4:3
Частота кадров : 25,000 кадров/сек
Стандарт вещания : PAL
Метод сжатия : С потерями
Текст
Формат : RLE
Формат/Информация : Run-length encoding
Битовая глубина : 2 бит
Общее
Полное имя : D:\Kavassilass DVD\DVD ДЖОРДЖ КАВАССИЛАС - Презентация Сидней 21.03.2011\VIDEO_TS\VIDEO_TS.IFO
Формат : DVD Video
Профиль формата : Menu
Размер файла : 18,0 Кбайт
Режим общего битрейта : Переменный
Видео
Идентификатор : 224 (0xE0)
Формат : MPEG Video
Версия формата : Version 2
Вид битрейта : Переменный
Ширина : 720 пикселей
Высота : 576 пикселей
Соотношение сторон : 4:3
Частота кадров : 25,000 кадров/сек
Стандарт вещания : PAL
Метод сжатия : С потерями
Текст
Формат : RLE
Формат/Информация : Run-length encoding
Битовая глубина : 2 бит
Общее
Полное имя : D:\Kavassilass DVD\DVD ДЖОРДЖ КАВАССИЛАС - Презентация Сидней 21.03.2011\VIDEO_TS\VIDEO_TS.VOB
Формат : MPEG-PS
Размер файла : 3,96 Мбайт
Продолжительность : 24 с.
Режим общего битрейта : Переменный
Общий поток : 1329 Кбит/сек
Видео
Идентификатор : 224 (0xE0)
Формат : MPEG Video
Версия формата : Version 2
Профиль формата : Main@Main
Параметр BVOP формата : Да
Параметр матрицы формата : По умолчанию
Параметр GOP формата : M=3, N=12
Продолжительность : 24 с.
Вид битрейта : Переменный
Битрейт : 1303 Кбит/сек
Максимальный битрейт : 9008 Кбит/сек
Ширина : 720 пикселей
Высота : 576 пикселей
Соотношение сторон : 4:3
Частота кадров : 25,000 кадров/сек
Стандарт вещания : PAL
Цветовое пространство : YUV
Субдискретизация насыщенности : 4:2:0
Битовая глубина : 8 бит
Тип развёртки : Прогрессивная
Метод сжатия : С потерями
Бит/(Пиксели*Кадры) : 0.126
Размер потока : 3,88 Мбайт (98%)
Текст
Идентификатор : 189 (0xBD)-32 (0x20)
Формат : RLE
Формат/Информация : Run-length encoding
Режим смешивания : DVD-Video
Задержка видео : 2 с. 480 мс.
Меню
Общее
Полное имя : D:\Kavassilass DVD\DVD ДЖОРДЖ КАВАССИЛАС - Презентация Сидней 21.03.2011\VIDEO_TS\VTS_01_0.BUP
Формат : DVD Video
Профиль формата : Program
Размер файла : 50,0 Кбайт
Продолжительность : 1 ч. 4 м.
Режим общего битрейта : Переменный
Общий поток : 105 бит/сек
Видео
Идентификатор : 224 (0xE0)
Формат : MPEG Video
Версия формата : Version 2
Продолжительность : 1 ч. 4 м.
Вид битрейта : Переменный
Ширина : 720 пикселей
Высота : 576 пикселей
Соотношение сторон : 16:9
Частота кадров : 25,000 кадров/сек
Стандарт вещания : PAL
Метод сжатия : С потерями
Аудио
Идентификатор : 128 (0x80)
Формат : AC-3
Формат/Информация : Audio Coding 3
Продолжительность : 1 ч. 4 м.
Каналы : 2 канала
Частота : 48,0 КГц
Метод сжатия : С потерями
Язык : Russian
Меню
Продолжительность : 1 ч. 4 м.
00:00:00.000 : Chapter 1
00:05:00.040 : Chapter 2
00:10:00.080 : Chapter 3
00:15:00.120 : Chapter 4
00:20:00.160 : Chapter 5
00:25:00.200 : Chapter 6
00:30:00.240 : Chapter 7
00:35:00.280 : Chapter 8
00:40:00.320 : Chapter 9
00:45:00.360 : Chapter 10
00:50:00.400 : Chapter 11
00:55:00.440 : Chapter 12
01:00:00.480 : Chapter 13
List (Audio) : 0
Общее
Полное имя : D:\Kavassilass DVD\DVD ДЖОРДЖ КАВАССИЛАС - Презентация Сидней 21.03.2011\VIDEO_TS\VTS_01_0.IFO
Формат : DVD Video
Профиль формата : Program
Размер файла : 50,0 Кбайт
Продолжительность : 1 ч. 4 м.
Режим общего битрейта : Переменный
Общий поток : 105 бит/сек
Видео
Идентификатор : 224 (0xE0)
Формат : MPEG Video
Версия формата : Version 2
Продолжительность : 1 ч. 4 м.
Вид битрейта : Переменный
Ширина : 720 пикселей
Высота : 576 пикселей
Соотношение сторон : 16:9
Частота кадров : 25,000 кадров/сек
Стандарт вещания : PAL
Метод сжатия : С потерями
Аудио
Идентификатор : 128 (0x80)
Формат : AC-3
Формат/Информация : Audio Coding 3
Продолжительность : 1 ч. 4 м.
Каналы : 2 канала
Частота : 48,0 КГц
Метод сжатия : С потерями
Язык : Russian
Меню
Продолжительность : 1 ч. 4 м.
00:00:00.000 : Chapter 1
00:05:00.040 : Chapter 2
00:10:00.080 : Chapter 3
00:15:00.120 : Chapter 4
00:20:00.160 : Chapter 5
00:25:00.200 : Chapter 6
00:30:00.240 : Chapter 7
00:35:00.280 : Chapter 8
00:40:00.320 : Chapter 9
00:45:00.360 : Chapter 10
00:50:00.400 : Chapter 11
00:55:00.440 : Chapter 12
01:00:00.480 : Chapter 13
List (Audio) : 0
Общее
Полное имя : D:\Kavassilass DVD\DVD ДЖОРДЖ КАВАССИЛАС - Презентация Сидней 21.03.2011\VIDEO_TS\VTS_01_0.VOB
Формат : MPEG-PS
Размер файла : 58,0 Кбайт
Продолжительность : 40 мс.
Режим общего битрейта : Переменный
Общий поток : 11,9 Мбит/сек
Видео
Идентификатор : 224 (0xE0)
Формат : MPEG Video
Версия формата : Version 2
Профиль формата : Main@Main
Параметр BVOP формата : Нет
Параметр матрицы формата : По умолчанию
Продолжительность : 40 мс.
Вид битрейта : Переменный
Ширина : 720 пикселей
Высота : 576 пикселей
Соотношение сторон : 16:9
Частота кадров : 25,000 кадров/сек
Стандарт вещания : PAL
Цветовое пространство : YUV
Субдискретизация насыщенности : 4:2:0
Битовая глубина : 8 бит
Тип развёртки : Прогрессивная
Метод сжатия : С потерями
Меню
Общее
Полное имя : D:\Kavassilass DVD\DVD ДЖОРДЖ КАВАССИЛАС - Презентация Сидней 21.03.2011\VIDEO_TS\VTS_01_1.VOB
Формат : MPEG-PS
Размер файла : 653 Мбайт
Продолжительность : 1 ч. 4 м.
Режим общего битрейта : Переменный
Общий поток : 1415 Кбит/сек
Видео
Идентификатор : 224 (0xE0)
Формат : MPEG Video
Версия формата : Version 2
Профиль формата : Main@Main
Параметр BVOP формата : Да
Параметр матрицы формата : По умолчанию
Параметр GOP формата : M=3, N=13
Продолжительность : 1 ч. 4 м.
Вид битрейта : Переменный
Битрейт : 1195 Кбит/сек
Максимальный битрейт : 9008 Кбит/сек
Ширина : 720 пикселей
Высота : 576 пикселей
Соотношение сторон : 16:9
Частота кадров : 25,000 кадров/сек
Стандарт вещания : PAL
Цветовое пространство : YUV
Субдискретизация насыщенности : 4:2:0
Битовая глубина : 8 бит
Тип развёртки : Прогрессивная
Метод сжатия : С потерями
Бит/(Пиксели*Кадры) : 0.115
Размер потока : 552 Мбайт (84%)
Аудио
Идентификатор : 189 (0xBD)-128 (0x80)
Формат : AC-3
Формат/Информация : Audio Coding 3
Расширение режима : CM (complete main)
Режим смешивания : DVD-Video
Продолжительность : 1 ч. 4 м.
Вид битрейта : Постоянный
Битрейт : 192 Кбит/сек
Каналы : 2 канала
Расположение каналов : Front: L R
Частота : 48,0 КГц
Битовая глубина : 16 бит
Метод сжатия : С потерями
Размер потока : 88,7 Мбайт (14%)
Меню
Общее
Полное имя : D:\Kavassilass DVD\DVD ДЖОРДЖ КАВАССИЛАС - Презентация Сидней 21.03.2011\VIDEO_TS\VTS_02_0.BUP
Формат : DVD Video
Профиль формата : Program
Размер файла : 50,0 Кбайт
Продолжительность : 1 ч. 2 м.
Режим общего битрейта : Переменный
Общий поток : 109 бит/сек
Видео
Идентификатор : 224 (0xE0)
Формат : MPEG Video
Версия формата : Version 2
Продолжительность : 1 ч. 2 м.
Вид битрейта : Переменный
Ширина : 720 пикселей
Высота : 576 пикселей
Соотношение сторон : 16:9
Частота кадров : 25,000 кадров/сек
Стандарт вещания : PAL
Метод сжатия : С потерями
Аудио
Идентификатор : 128 (0x80)
Формат : AC-3
Формат/Информация : Audio Coding 3
Продолжительность : 1 ч. 2 м.
Каналы : 2 канала
Частота : 48,0 КГц
Метод сжатия : С потерями
Язык : Russian
Меню
Продолжительность : 1 ч. 2 м.
00:00:00.000 : Chapter 1
00:05:00.040 : Chapter 2
00:10:00.080 : Chapter 3
00:15:00.120 : Chapter 4
00:20:00.160 : Chapter 5
00:25:00.200 : Chapter 6
00:30:00.240 : Chapter 7
00:35:00.280 : Chapter 8
00:40:00.320 : Chapter 9
00:45:00.360 : Chapter 10
00:50:00.400 : Chapter 11
00:55:00.440 : Chapter 12
01:00:00.480 : Chapter 13
List (Audio) : 0
Общее
Полное имя : D:\Kavassilass DVD\DVD ДЖОРДЖ КАВАССИЛАС - Презентация Сидней 21.03.2011\VIDEO_TS\VTS_02_0.IFO
Формат : DVD Video
Профиль формата : Program
Размер файла : 50,0 Кбайт
Продолжительность : 1 ч. 2 м.
Режим общего битрейта : Переменный
Общий поток : 109 бит/сек
Видео
Идентификатор : 224 (0xE0)
Формат : MPEG Video
Версия формата : Version 2
Продолжительность : 1 ч. 2 м.
Вид битрейта : Переменный
Ширина : 720 пикселей
Высота : 576 пикселей
Соотношение сторон : 16:9
Частота кадров : 25,000 кадров/сек
Стандарт вещания : PAL
Метод сжатия : С потерями
Аудио
Идентификатор : 128 (0x80)
Формат : AC-3
Формат/Информация : Audio Coding 3
Продолжительность : 1 ч. 2 м.
Каналы : 2 канала
Частота : 48,0 КГц
Метод сжатия : С потерями
Язык : Russian
Меню
Продолжительность : 1 ч. 2 м.
00:00:00.000 : Chapter 1
00:05:00.040 : Chapter 2
00:10:00.080 : Chapter 3
00:15:00.120 : Chapter 4
00:20:00.160 : Chapter 5
00:25:00.200 : Chapter 6
00:30:00.240 : Chapter 7
00:35:00.280 : Chapter 8
00:40:00.320 : Chapter 9
00:45:00.360 : Chapter 10
00:50:00.400 : Chapter 11
00:55:00.440 : Chapter 12
01:00:00.480 : Chapter 13
List (Audio) : 0
Общее
Полное имя : D:\Kavassilass DVD\DVD ДЖОРДЖ КАВАССИЛАС - Презентация Сидней 21.03.2011\VIDEO_TS\VTS_02_0.VOB
Формат : MPEG-PS
Размер файла : 58,0 Кбайт
Продолжительность : 40 мс.
Режим общего битрейта : Переменный
Общий поток : 11,9 Мбит/сек
Видео
Идентификатор : 224 (0xE0)
Формат : MPEG Video
Версия формата : Version 2
Профиль формата : Main@Main
Параметр BVOP формата : Нет
Параметр матрицы формата : По умолчанию
Продолжительность : 40 мс.
Вид битрейта : Переменный
Ширина : 720 пикселей
Высота : 576 пикселей
Соотношение сторон : 16:9
Частота кадров : 25,000 кадров/сек
Стандарт вещания : PAL
Цветовое пространство : YUV
Субдискретизация насыщенности : 4:2:0
Битовая глубина : 8 бит
Тип развёртки : Прогрессивная
Метод сжатия : С потерями
Меню
Общее
Полное имя : D:\Kavassilass DVD\DVD ДЖОРДЖ КАВАССИЛАС - Презентация Сидней 21.03.2011\VIDEO_TS\VTS_02_1.VOB
Формат : MPEG-PS
Размер файла : 679 Мбайт
Продолжительность : 1 ч. 2 м.
Режим общего битрейта : Переменный
Общий поток : 1523 Кбит/сек
Видео
Идентификатор : 224 (0xE0)
Формат : MPEG Video
Версия формата : Version 2
Профиль формата : Main@Main
Параметр BVOP формата : Да
Параметр матрицы формата : По умолчанию
Параметр GOP формата : M=3, N=13
Продолжительность : 1 ч. 2 м.
Вид битрейта : Переменный
Битрейт : 1300 Кбит/сек
Максимальный битрейт : 9008 Кбит/сек
Ширина : 720 пикселей
Высота : 576 пикселей
Соотношение сторон : 16:9
Частота кадров : 25,000 кадров/сек
Стандарт вещания : PAL
Цветовое пространство : YUV
Субдискретизация насыщенности : 4:2:0
Битовая глубина : 8 бит
Тип развёртки : Прогрессивная
Метод сжатия : С потерями
Бит/(Пиксели*Кадры) : 0.125
Размер потока : 580 Мбайт (85%)
Аудио
Идентификатор : 189 (0xBD)-128 (0x80)
Формат : AC-3
Формат/Информация : Audio Coding 3
Расширение режима : CM (complete main)
Режим смешивания : DVD-Video
Продолжительность : 1 ч. 2 м.
Вид битрейта : Постоянный
Битрейт : 192 Кбит/сек
Каналы : 2 канала
Расположение каналов : Front: L R
Частота : 48,0 КГц
Битовая глубина : 16 бит
Метод сжатия : С потерями
Размер потока : 85,6 Мбайт (13%)
Меню
Общее
Полное имя : D:\Kavassilass DVD\DVD ДЖОРДЖ КАВАССИЛАС - Презентация Сидней 21.03.2011\VIDEO_TS\VTS_03_0.BUP
Формат : DVD Video
Профиль формата : Program
Размер файла : 34,0 Кбайт
Продолжительность : 34 м.
Режим общего битрейта : Переменный
Общий поток : 133 бит/сек
Видео
Идентификатор : 224 (0xE0)
Формат : MPEG Video
Версия формата : Version 2
Продолжительность : 34 м.
Вид битрейта : Переменный
Ширина : 720 пикселей
Высота : 576 пикселей
Соотношение сторон : 16:9
Частота кадров : 25,000 кадров/сек
Стандарт вещания : PAL
Метод сжатия : С потерями
Аудио
Идентификатор : 128 (0x80)
Формат : AC-3
Формат/Информация : Audio Coding 3
Продолжительность : 34 м.
Каналы : 2 канала
Частота : 48,0 КГц
Метод сжатия : С потерями
Язык : Russian
Меню
Продолжительность : 34 м.
00:00:00.000 : Chapter 1
00:05:00.040 : Chapter 2
00:10:00.080 : Chapter 3
00:15:00.120 : Chapter 4
00:20:00.160 : Chapter 5
00:25:00.200 : Chapter 6
00:30:00.240 : Chapter 7
List (Audio) : 0
Общее
Полное имя : D:\Kavassilass DVD\DVD ДЖОРДЖ КАВАССИЛАС - Презентация Сидней 21.03.2011\VIDEO_TS\VTS_03_0.IFO
Формат : DVD Video
Профиль формата : Program
Размер файла : 34,0 Кбайт
Продолжительность : 34 м.
Режим общего битрейта : Переменный
Общий поток : 133 бит/сек
Видео
Идентификатор : 224 (0xE0)
Формат : MPEG Video
Версия формата : Version 2
Продолжительность : 34 м.
Вид битрейта : Переменный
Ширина : 720 пикселей
Высота : 576 пикселей
Соотношение сторон : 16:9
Частота кадров : 25,000 кадров/сек
Стандарт вещания : PAL
Метод сжатия : С потерями
Аудио
Идентификатор : 128 (0x80)
Формат : AC-3
Формат/Информация : Audio Coding 3
Продолжительность : 34 м.
Каналы : 2 канала
Частота : 48,0 КГц
Метод сжатия : С потерями
Язык : Russian
Меню
Продолжительность : 34 м.
00:00:00.000 : Chapter 1
00:05:00.040 : Chapter 2
00:10:00.080 : Chapter 3
00:15:00.120 : Chapter 4
00:20:00.160 : Chapter 5
00:25:00.200 : Chapter 6
00:30:00.240 : Chapter 7
List (Audio) : 0
Общее
Полное имя : D:\Kavassilass DVD\DVD ДЖОРДЖ КАВАССИЛАС - Презентация Сидней 21.03.2011\VIDEO_TS\VTS_03_0.VOB
Формат : MPEG-PS
Размер файла : 58,0 Кбайт
Продолжительность : 40 мс.
Режим общего битрейта : Переменный
Общий поток : 11,9 Мбит/сек
Видео
Идентификатор : 224 (0xE0)
Формат : MPEG Video
Версия формата : Version 2
Профиль формата : Main@Main
Параметр BVOP формата : Нет
Параметр матрицы формата : По умолчанию
Продолжительность : 40 мс.
Вид битрейта : Переменный
Ширина : 720 пикселей
Высота : 576 пикселей
Соотношение сторон : 16:9
Частота кадров : 25,000 кадров/сек
Стандарт вещания : PAL
Цветовое пространство : YUV
Субдискретизация насыщенности : 4:2:0
Битовая глубина : 8 бит
Тип развёртки : Прогрессивная
Метод сжатия : С потерями
Меню
Общее
Полное имя : D:\Kavassilass DVD\DVD ДЖОРДЖ КАВАССИЛАС - Презентация Сидней 21.03.2011\VIDEO_TS\VTS_03_1.VOB
Формат : MPEG-PS
Размер файла : 356 Мбайт
Продолжительность : 34 м.
Режим общего битрейта : Переменный
Общий поток : 1438 Кбит/сек
Видео
Идентификатор : 224 (0xE0)
Формат : MPEG Video
Версия формата : Version 2
Профиль формата : Main@Main
Параметр BVOP формата : Да
Параметр матрицы формата : По умолчанию
Параметр GOP формата : M=3, N=13
Продолжительность : 34 м.
Вид битрейта : Переменный
Битрейт : 1217 Кбит/сек
Максимальный битрейт : 9008 Кбит/сек
Ширина : 720 пикселей
Высота : 576 пикселей
Соотношение сторон : 16:9
Частота кадров : 25,000 кадров/сек
Стандарт вещания : PAL
Цветовое пространство : YUV
Субдискретизация насыщенности : 4:2:0
Битовая глубина : 8 бит
Тип развёртки : Прогрессивная
Метод сжатия : С потерями
Бит/(Пиксели*Кадры) : 0.117
Размер потока : 302 Мбайт (85%)
Аудио
Идентификатор : 189 (0xBD)-128 (0x80)
Формат : AC-3
Формат/Информация : Audio Coding 3
Расширение режима : CM (complete main)
Режим смешивания : DVD-Video
Продолжительность : 34 м.
Вид битрейта : Постоянный
Битрейт : 192 Кбит/сек
Каналы : 2 канала
Расположение каналов : Front: L R
Частота : 48,0 КГц
Битовая глубина : 16 бит
Метод сжатия : С потерями
Размер потока : 47,6 Мбайт (13%)
Меню
Общее
Полное имя : D:\Kavassilass DVD\DVD ДЖОРДЖ КАВАССИЛАС - Презентация Сидней 21.03.2011\VIDEO_TS\VTS_04_0.BUP
Формат : DVD Video
Профиль формата : Program
Размер файла : 38,0 Кбайт
Продолжительность : 43 м.
Режим общего битрейта : Переменный
Общий поток : 118 бит/сек
Видео
Идентификатор : 224 (0xE0)
Формат : MPEG Video
Версия формата : Version 2
Продолжительность : 43 м.
Вид битрейта : Переменный
Ширина : 720 пикселей
Высота : 576 пикселей
Соотношение сторон : 16:9
Частота кадров : 25,000 кадров/сек
Стандарт вещания : PAL
Метод сжатия : С потерями
Аудио
Идентификатор : 128 (0x80)
Формат : AC-3
Формат/Информация : Audio Coding 3
Продолжительность : 43 м.
Каналы : 2 канала
Частота : 48,0 КГц
Метод сжатия : С потерями
Язык : Russian
Меню
Продолжительность : 43 м.
00:00:00.000 : Chapter 1
00:05:00.040 : Chapter 2
00:10:00.080 : Chapter 3
00:15:00.120 : Chapter 4
00:20:00.160 : Chapter 5
00:25:00.200 : Chapter 6
00:30:00.240 : Chapter 7
00:35:00.280 : Chapter 8
00:40:00.320 : Chapter 9
List (Audio) : 0
Общее
Полное имя : D:\Kavassilass DVD\DVD ДЖОРДЖ КАВАССИЛАС - Презентация Сидней 21.03.2011\VIDEO_TS\VTS_04_0.IFO
Формат : DVD Video
Профиль формата : Program
Размер файла : 38,0 Кбайт
Продолжительность : 43 м.
Режим общего битрейта : Переменный
Общий поток : 118 бит/сек
Видео
Идентификатор : 224 (0xE0)
Формат : MPEG Video
Версия формата : Version 2
Продолжительность : 43 м.
Вид битрейта : Переменный
Ширина : 720 пикселей
Высота : 576 пикселей
Соотношение сторон : 16:9
Частота кадров : 25,000 кадров/сек
Стандарт вещания : PAL
Метод сжатия : С потерями
Аудио
Идентификатор : 128 (0x80)
Формат : AC-3
Формат/Информация : Audio Coding 3
Продолжительность : 43 м.
Каналы : 2 канала
Частота : 48,0 КГц
Метод сжатия : С потерями
Язык : Russian
Меню
Продолжительность : 43 м.
00:00:00.000 : Chapter 1
00:05:00.040 : Chapter 2
00:10:00.080 : Chapter 3
00:15:00.120 : Chapter 4
00:20:00.160 : Chapter 5
00:25:00.200 : Chapter 6
00:30:00.240 : Chapter 7
00:35:00.280 : Chapter 8
00:40:00.320 : Chapter 9
List (Audio) : 0
Общее
Полное имя : D:\Kavassilass DVD\DVD ДЖОРДЖ КАВАССИЛАС - Презентация Сидней 21.03.2011\VIDEO_TS\VTS_04_0.VOB
Формат : MPEG-PS
Размер файла : 58,0 Кбайт
Продолжительность : 40 мс.
Режим общего битрейта : Переменный
Общий поток : 11,9 Мбит/сек
Видео
Идентификатор : 224 (0xE0)
Формат : MPEG Video
Версия формата : Version 2
Профиль формата : Main@Main
Параметр BVOP формата : Нет
Параметр матрицы формата : По умолчанию
Продолжительность : 40 мс.
Вид битрейта : Переменный
Ширина : 720 пикселей
Высота : 576 пикселей
Соотношение сторон : 16:9
Частота кадров : 25,000 кадров/сек
Стандарт вещания : PAL
Цветовое пространство : YUV
Субдискретизация насыщенности : 4:2:0
Битовая глубина : 8 бит
Тип развёртки : Прогрессивная
Метод сжатия : С потерями
Меню
Общее
Полное имя : D:\Kavassilass DVD\DVD ДЖОРДЖ КАВАССИЛАС - Презентация Сидней 21.03.2011\VIDEO_TS\VTS_04_1.VOB
Формат : MPEG-PS
Размер файла : 465 Мбайт
Продолжительность : 43 м.
Режим общего битрейта : Переменный
Общий поток : 1483 Кбит/сек
Видео
Идентификатор : 224 (0xE0)
Формат : MPEG Video
Версия формата : Version 2
Профиль формата : Main@Main
Параметр BVOP формата : Да
Параметр матрицы формата : По умолчанию
Параметр GOP формата : M=3, N=13
Продолжительность : 43 м.
Вид битрейта : Переменный
Битрейт : 1262 Кбит/сек
Максимальный битрейт : 9008 Кбит/сек
Ширина : 720 пикселей
Высота : 576 пикселей
Соотношение сторон : 16:9
Частота кадров : 25,000 кадров/сек
Стандарт вещания : PAL
Цветовое пространство : YUV
Субдискретизация насыщенности : 4:2:0
Битовая глубина : 8 бит
Тип развёртки : Прогрессивная
Метод сжатия : С потерями
Бит/(Пиксели*Кадры) : 0.122
Размер потока : 396 Мбайт (85%)
Аудио
Идентификатор : 189 (0xBD)-128 (0x80)
Формат : AC-3
Формат/Информация : Audio Coding 3
Расширение режима : CM (complete main)
Режим смешивания : DVD-Video
Продолжительность : 43 м.
Вид битрейта : Постоянный
Битрейт : 192 Кбит/сек
Каналы : 2 канала
Расположение каналов : Front: L R
Частота : 48,0 КГц
Битовая глубина : 16 бит
Метод сжатия : С потерями
Размер потока : 60,2 Мбайт (13%)
Меню
Общее
Полное имя : D:\Kavassilass DVD\DVD ДЖОРДЖ КАВАССИЛАС - Презентация Сидней 21.03.2011\VIDEO_TS\VTS_05_0.BUP
Формат : DVD Video
Профиль формата : Program
Размер файла : 38,0 Кбайт
Продолжительность : 40 м.
Режим общего битрейта : Переменный
Общий поток : 127 бит/сек
Видео
Идентификатор : 224 (0xE0)
Формат : MPEG Video
Версия формата : Version 2
Продолжительность : 40 м.
Вид битрейта : Переменный
Ширина : 720 пикселей
Высота : 576 пикселей
Соотношение сторон : 16:9
Частота кадров : 25,000 кадров/сек
Стандарт вещания : PAL
Метод сжатия : С потерями
Аудио
Идентификатор : 128 (0x80)
Формат : AC-3
Формат/Информация : Audio Coding 3
Продолжительность : 40 м.
Каналы : 2 канала
Частота : 48,0 КГц
Метод сжатия : С потерями
Язык : Russian
Меню
Продолжительность : 40 м.
00:00:00.000 : Chapter 1
00:05:00.040 : Chapter 2
00:10:00.080 : Chapter 3
00:15:00.120 : Chapter 4
00:20:00.160 : Chapter 5
00:25:00.200 : Chapter 6
00:30:00.240 : Chapter 7
00:35:00.280 : Chapter 8
00:40:00.320 : Chapter 9
List (Audio) : 0
Общее
Полное имя : D:\Kavassilass DVD\DVD ДЖОРДЖ КАВАССИЛАС - Презентация Сидней 21.03.2011\VIDEO_TS\VTS_05_0.IFO
Формат : DVD Video
Профиль формата : Program
Размер файла : 38,0 Кбайт
Продолжительность : 40 м.
Режим общего битрейта : Переменный
Общий поток : 127 бит/сек
Видео
Идентификатор : 224 (0xE0)
Формат : MPEG Video
Версия формата : Version 2
Продолжительность : 40 м.
Вид битрейта : Переменный
Ширина : 720 пикселей
Высота : 576 пикселей
Соотношение сторон : 16:9
Частота кадров : 25,000 кадров/сек
Стандарт вещания : PAL
Метод сжатия : С потерями
Аудио
Идентификатор : 128 (0x80)
Формат : AC-3
Формат/Информация : Audio Coding 3
Продолжительность : 40 м.
Каналы : 2 канала
Частота : 48,0 КГц
Метод сжатия : С потерями
Язык : Russian
Меню
Продолжительность : 40 м.
00:00:00.000 : Chapter 1
00:05:00.040 : Chapter 2
00:10:00.080 : Chapter 3
00:15:00.120 : Chapter 4
00:20:00.160 : Chapter 5
00:25:00.200 : Chapter 6
00:30:00.240 : Chapter 7
00:35:00.280 : Chapter 8
00:40:00.320 : Chapter 9
List (Audio) : 0
Общее
Полное имя : D:\Kavassilass DVD\DVD ДЖОРДЖ КАВАССИЛАС - Презентация Сидней 21.03.2011\VIDEO_TS\VTS_05_0.VOB
Формат : MPEG-PS
Размер файла : 58,0 Кбайт
Продолжительность : 40 мс.
Режим общего битрейта : Переменный
Общий поток : 11,9 Мбит/сек
Видео
Идентификатор : 224 (0xE0)
Формат : MPEG Video
Версия формата : Version 2
Профиль формата : Main@Main
Параметр BVOP формата : Нет
Параметр матрицы формата : По умолчанию
Продолжительность : 40 мс.
Вид битрейта : Переменный
Ширина : 720 пикселей
Высота : 576 пикселей
Соотношение сторон : 16:9
Частота кадров : 25,000 кадров/сек
Стандарт вещания : PAL
Цветовое пространство : YUV
Субдискретизация насыщенности : 4:2:0
Битовая глубина : 8 бит
Тип развёртки : Прогрессивная
Метод сжатия : С потерями
Меню
Общее
Полное имя : D:\Kavassilass DVD\DVD ДЖОРДЖ КАВАССИЛАС - Презентация Сидней 21.03.2011\VIDEO_TS\VTS_05_1.VOB
Формат : MPEG-PS
Размер файла : 425 Мбайт
Продолжительность : 40 м.
Режим общего битрейта : Переменный
Общий поток : 1461 Кбит/сек
Видео
Идентификатор : 224 (0xE0)
Формат : MPEG Video
Версия формата : Version 2
Профиль формата : Main@Main
Параметр BVOP формата : Да
Параметр матрицы формата : По умолчанию
Параметр GOP формата : M=3, N=13
Продолжительность : 40 м.
Вид битрейта : Переменный
Битрейт : 1240 Кбит/сек
Максимальный битрейт : 9008 Кбит/сек
Ширина : 720 пикселей
Высота : 576 пикселей
Соотношение сторон : 16:9
Частота кадров : 25,000 кадров/сек
Стандарт вещания : PAL
Цветовое пространство : YUV
Субдискретизация насыщенности : 4:2:0
Битовая глубина : 8 бит
Тип развёртки : Прогрессивная
Метод сжатия : С потерями
Бит/(Пиксели*Кадры) : 0.120
Размер потока : 360 Мбайт (85%)
Аудио
Идентификатор : 189 (0xBD)-128 (0x80)
Формат : AC-3
Формат/Информация : Audio Coding 3
Расширение режима : CM (complete main)
Режим смешивания : DVD-Video
Продолжительность : 40 м.
Вид битрейта : Постоянный
Битрейт : 192 Кбит/сек
Каналы : 2 канала
Расположение каналов : Front: L R
Частота : 48,0 КГц
Битовая глубина : 16 бит
Метод сжатия : С потерями
Размер потока : 55,8 Мбайт (13%)
Меню
Общее
Полное имя : D:\Kavassilass DVD\DVD ДЖОРДЖ КАВАССИЛАС - Презентация Сидней 21.03.2011\VIDEO_TS\VTS_06_0.BUP
Формат : DVD Video
Профиль формата : Program
Размер файла : 58,0 Кбайт
Продолжительность : 1 ч. 19 м.
Режим общего битрейта : Переменный
Общий поток : 99 бит/сек
Видео
Идентификатор : 224 (0xE0)
Формат : MPEG Video
Версия формата : Version 2
Продолжительность : 1 ч. 19 м.
Вид битрейта : Переменный
Ширина : 720 пикселей
Высота : 576 пикселей
Соотношение сторон : 16:9
Частота кадров : 25,000 кадров/сек
Стандарт вещания : PAL
Метод сжатия : С потерями
Аудио
Идентификатор : 128 (0x80)
Формат : AC-3
Формат/Информация : Audio Coding 3
Продолжительность : 1 ч. 19 м.
Каналы : 2 канала
Частота : 48,0 КГц
Метод сжатия : С потерями
Язык : Russian
Меню
Продолжительность : 1 ч. 19 м.
00:00:00.000 : Chapter 1
00:05:00.040 : Chapter 2
00:10:00.080 : Chapter 3
00:15:00.120 : Chapter 4
00:20:00.160 : Chapter 5
00:25:00.200 : Chapter 6
00:30:00.240 : Chapter 7
00:35:00.280 : Chapter 8
00:40:00.320 : Chapter 9
00:45:00.360 : Chapter 10
00:50:00.400 : Chapter 11
00:55:00.440 : Chapter 12
01:00:00.480 : Chapter 13
01:05:00.000 : Chapter 14
01:10:00.040 : Chapter 15
01:15:00.080 : Chapter 16
List (Audio) : 0
Общее
Полное имя : D:\Kavassilass DVD\DVD ДЖОРДЖ КАВАССИЛАС - Презентация Сидней 21.03.2011\VIDEO_TS\VTS_06_0.IFO
Формат : DVD Video
Профиль формата : Program
Размер файла : 58,0 Кбайт
Продолжительность : 1 ч. 19 м.
Режим общего битрейта : Переменный
Общий поток : 99 бит/сек
Видео
Идентификатор : 224 (0xE0)
Формат : MPEG Video
Версия формата : Version 2
Продолжительность : 1 ч. 19 м.
Вид битрейта : Переменный
Ширина : 720 пикселей
Высота : 576 пикселей
Соотношение сторон : 16:9
Частота кадров : 25,000 кадров/сек
Стандарт вещания : PAL
Метод сжатия : С потерями
Аудио
Идентификатор : 128 (0x80)
Формат : AC-3
Формат/Информация : Audio Coding 3
Продолжительность : 1 ч. 19 м.
Каналы : 2 канала
Частота : 48,0 КГц
Метод сжатия : С потерями
Язык : Russian
Меню
Продолжительность : 1 ч. 19 м.
00:00:00.000 : Chapter 1
00:05:00.040 : Chapter 2
00:10:00.080 : Chapter 3
00:15:00.120 : Chapter 4
00:20:00.160 : Chapter 5
00:25:00.200 : Chapter 6
00:30:00.240 : Chapter 7
00:35:00.280 : Chapter 8
00:40:00.320 : Chapter 9
00:45:00.360 : Chapter 10
00:50:00.400 : Chapter 11
00:55:00.440 : Chapter 12
01:00:00.480 : Chapter 13
01:05:00.000 : Chapter 14
01:10:00.040 : Chapter 15
01:15:00.080 : Chapter 16
List (Audio) : 0
Общее
Полное имя : D:\Kavassilass DVD\DVD ДЖОРДЖ КАВАССИЛАС - Презентация Сидней 21.03.2011\VIDEO_TS\VTS_06_0.VOB
Формат : MPEG-PS
Размер файла : 58,0 Кбайт
Продолжительность : 40 мс.
Режим общего битрейта : Переменный
Общий поток : 11,9 Мбит/сек
Видео
Идентификатор : 224 (0xE0)
Формат : MPEG Video
Версия формата : Version 2
Профиль формата : Main@Main
Параметр BVOP формата : Нет
Параметр матрицы формата : По умолчанию
Продолжительность : 40 мс.
Вид битрейта : Переменный
Ширина : 720 пикселей
Высота : 576 пикселей
Соотношение сторон : 16:9
Частота кадров : 25,000 кадров/сек
Стандарт вещания : PAL
Цветовое пространство : YUV
Субдискретизация насыщенности : 4:2:0
Битовая глубина : 8 бит
Тип развёртки : Прогрессивная
Метод сжатия : С потерями
Меню
Общее
Полное имя : D:\Kavassilass DVD\DVD ДЖОРДЖ КАВАССИЛАС - Презентация Сидней 21.03.2011\VIDEO_TS\VTS_06_1.VOB
Формат : MPEG-PS
Размер файла : 784 Мбайт
Продолжительность : 1 ч. 19 м.
Режим общего битрейта : Переменный
Общий поток : 1374 Кбит/сек
Видео
Идентификатор : 224 (0xE0)
Формат : MPEG Video
Версия формата : Version 2
Профиль формата : Main@Main
Параметр BVOP формата : Да
Параметр матрицы формата : По умолчанию
Параметр GOP формата : M=3, N=13
Продолжительность : 1 ч. 19 м.
Вид битрейта : Переменный
Битрейт : 1155 Кбит/сек
Максимальный битрейт : 9008 Кбит/сек
Ширина : 720 пикселей
Высота : 576 пикселей
Соотношение сторон : 16:9
Частота кадров : 25,000 кадров/сек
Стандарт вещания : PAL
Цветовое пространство : YUV
Субдискретизация насыщенности : 4:2:0
Битовая глубина : 8 бит
Тип развёртки : Прогрессивная
Метод сжатия : С потерями
Бит/(Пиксели*Кадры) : 0.111
Размер потока : 658 Мбайт (84%)
Аудио
Идентификатор : 189 (0xBD)-128 (0x80)
Формат : AC-3
Формат/Информация : Audio Coding 3
Расширение режима : CM (complete main)
Режим смешивания : DVD-Video
Продолжительность : 1 ч. 19 м.
Вид битрейта : Постоянный
Битрейт : 192 Кбит/сек
Каналы : 2 канала
Расположение каналов : Front: L R
Частота : 48,0 КГц
Битовая глубина : 16 бит
Метод сжатия : С потерями
Размер потока : 109 Мбайт (14%)
Меню

Скриншоты

Скачать

Скачать торрент!

Как скачивать? · Что такое торрент? · Рейтинг и ограничения

Сайт не распространяет и не хранит электронные версии произведений, а лишь предоставляет доступ к создаваемому пользователями каталогу ссылок на торрент-файлы, которые содержат только списки хеш-сумм

загрузка...
[Профиль] [ЛС]

Armani222

Стаж: 4 года

Сообщений: 10

Пост Пост: #2 от 30-Июн-2015 19:26 (спустя 3 года 6 месяцев)

[Цитировать]

Ух ты, долго найти не мог)
[Профиль] [ЛС]
Показать сообщения:    
Ответить на тему

Текущее время: Сегодня 23:47

Часовой пояс: GMT + 4



Вы не можете начинать темы
Вы не можете отвечать на сообщения
Вы не можете редактировать свои сообщения
Вы не можете удалять свои сообщения
Вы не можете голосовать в опросах
Вы не можете прикреплять файлы к сообщениям
Вы не можете скачивать файлы