24 часа / 24 Just in time / Сезон - 7, серии 1-24 (Джон Кассар, Брэд Тернер, Брайан Спайсер) [2009 г., драма, боевик, детектив, триллер, DVDRip]

Ответить на тему
 
Автор Сообщение

oppolon ®

Стаж: 5 лет 2 месяца

Сообщений: 11

Откуда: Moscow

Пост Пост: #1 от 25-Сен-2011 00:36

[Цитировать]

24 часа / 24 Just in time / Сезон - 7, серии 1-24
Год выпуска: 2009
Жанр: драма, боевик, детектив, триллер
Страна: США
Режиссер: Джон Кассар, Брэд Тернер, Брайан Спайсер
В ролях: Кифер Сазерленд, Мэри Линн Райскаб, Карлос Бернард, Элиша Катберт, Деннис Хейсбёрт, Джеймс Моррисон, Рейко Эйлсворт, Джуд Чикколелла, Ким Рэйвер, Гленн Моршауэр
Описание: Четыре года спустя после событий шестого сезона Джек Бауэр предстаёт перед подкомитетом Сената. Его обвиняют в неоправданной жестокости в ходе операций ныне расформированного КТУ. Однако слушания прерывают агенты ФБР. Им не обойтись без Бауэра, ведь национальная безопасность снова под угрозой, и за этим, похоже, стоит давний знакомый Джека...
Седьмой день начинается...
Личная оценка: 9 из 10
Продолжительность: 24 серии по ~43 минуты, общая: ~17:12:00
Качество видео: DVDRip
Видео: кодек: XviD, контейнер: avi, размер кадра: 720x400 (16:9), 23.976 fps, битрейт: 1013 кб/с
Аудио: язык: русский, перевод: одноголосый закадровый, аудиокодек: MP3, битрейт аудио: 128 кб/с

Дополнительная информация:

General
Complete name : P:\Сериалы\-=Зарубежные=-\24 часа\7 s (avi)\24_s07_e_01.avi
Format : AVI
Format/Info : Audio Video Interleave
File size : 701 MiB
Duration : 45mn 36s
Overall bit rate : 2 148 Kbps
Writing application : VirtualDubMod 1.5.10.2 (build 2540/release)
Writing library : VirtualDubMod build 2540/release
Video #0
ID : 0
Format : MPEG-4 Visual
Format profile : AdvancedSimple@L5
Format settings, BVOP : Yes
Format settings, QPel : No
Format settings, GMC : No warppoints
Format settings, Matrix : Default (MPEG)
Codec ID : XVID
Codec ID/Hint : XviD
Duration : 45mn 36s
Bit rate : 1 755 Kbps
Width : 720 pixels
Height : 400 pixels
Display aspect ratio : 16:9
Frame rate : 23.976 fps
Resolution : 24 bits
Colorimetry : 4:2:0
Scan type : Progressive
Bits/(Pixel*Frame) : 0.254
Stream size : 572 MiB (82%)
Writing library : XviD 1.2.1 (UTC 2008-12-04)
Audio #1
ID : 1
Format : AC-3
Format/Info : Audio Coding 3
Codec ID : 2000
Duration : 45mn 36s
Bit rate mode : Constant
Bit rate : 384 Kbps
Channel(s) : 6 channels
Channel positions : Front: L C R, Surround: L R, LFE
Sampling rate : 48.0 KHz
Stream size : 125 MiB (18%)
Alignment : Split accross interleaves
Interleave, duration : 42 ms (1.00 video frame)
Interleave, preload duration : 500 ms

Скриншоты:

Скачать

Скачать торрент!

Как скачивать? · Что такое торрент? · Рейтинг и ограничения

Сайт не распространяет и не хранит электронные версии произведений, а лишь предоставляет доступ к создаваемому пользователями каталогу ссылок на торрент-файлы, которые содержат только списки хеш-сумм

[Профиль] [ЛС]
Показать сообщения:    
Ответить на тему

Текущее время: Сегодня 14:14

Часовой пояс: GMT + 4



Вы не можете начинать темы
Вы не можете отвечать на сообщения
Вы не можете редактировать свои сообщения
Вы не можете удалять свои сообщения
Вы не можете голосовать в опросах
Вы не можете прикреплять файлы к сообщениям
Вы не можете скачивать файлы