24 часа / 24 Just in time / Сезон - 8, серии 1-24 (Джон Кассар, Брэд Тернер, Брайан Спайсер) [2010 г., драма, боевик, детектив, триллер , HDTVRip]

Ответить на тему
 
Автор Сообщение

oppolon ®

Стаж: 5 лет 2 месяца

Сообщений: 11

Откуда: Moscow

Пост Пост: #1 от 24-Сен-2011 16:03

[Цитировать]

24 часа / 24 Just in time / Сезон - 8, серии 1-24
Год выпуска: 2010
Жанр: драма, боевик, детектив, триллер
Страна: США
Режиссер: Джон Кассар, Брэд Тернер, Брайан Спайсер
В ролях: Кифер Сазерленд, Мэри Линн Раджскуб, Карло Рота, Карлос Бернард, Джеймс Моррисон, Элайша Катберт
Описание: В сутках 24 часа, но для Джека Бауэра - бывшего шефа элитного антитеррористического подразделения ЦРУ – этого времени явно недостаточно. Ровно за одни сутки он должен успеть спасти город и страну от очередной террористической угрозы. Каждый сезон, состоящий из 24 серий, повествует об одних сутках из жизни Джека, за один день он должен совершить невозможное...
Джек Бауэр, оставленный нами в конце седьмого сезона на больничной койке, уже завершает курс лечения в Нью-Йорке. Он вне игры и ему хочется лишь одного - своей семьи и покоя. Но стремительные события вновь требуют его участия. Предательство и измена в высших эшелонах власти, заговоры и теракты - Джек Бауэр снова в деле, теперь уже на земле Нью-Йорка. Сможет ли он, всегда бегущий по лезвию, пережить новый день?
Восьмой день начинается...
Неожиданные ходы, напряженное действие - Джек Бауэр снова с нами!
Личная оценка: 9 из 10
Продолжительность: 24 серии по ~43 минуты, общая: ~17:12:00
Качество видео: HDTVRip
Видео: кодек: XviD, контейнер: avi, размер кадра: 720х400, 16:9, битрейт: 2 292 кб/с
Аудио: язык: русский, перевод: двухголосый закадровый, аудиокодек: AC3, битрейт аудио: 192 кб/с

Дополнительная информация:

General
Format : AVI
Format/Info : Audio Video Interleave
File size : 700 MiB
Duration : 42mn 40s
Overall bit rate : 2 292 Kbps
Writing application : VirtualDubMod 1.5.10.2 (build 2540/release)
Writing library : VirtualDubMod build 2540/release
Video #0
ID : 0
Format : MPEG-4 Visual
Format profile : AdvancedSimple@L5
Format settings, BVOP : Yes
Format settings, QPel : No
Format settings, GMC : No warppoints
Format settings, Matrix : Default (MPEG)
Codec ID : XVID
Codec ID/Hint : XviD
Duration : 42mn 40s
Bit rate : 2 091 Kbps
Width : 720 pixels
Height : 400 pixels
Display aspect ratio : 16:9
Frame rate : 23.976 fps
Resolution : 24 bits
Colorimetry : 4:2:0
Scan type : Progressive
Bits/(Pixel*Frame) : 0.303
Stream size : 638 MiB (91%)
Writing library : XviD 1.2.1 (UTC 2008-12-04)
Audio #1
ID : 1
Format : AC-3
Format/Info : Audio Coding 3
Codec ID : 2000
Duration : 42mn 40s
Bit rate mode : Constant
Bit rate : 192 Kbps
Channel(s) : 2 channels
Channel positions : L R
Sampling rate : 48.0 KHz
Stream size : 58.6 MiB (8%)
Alignment : Split accross interleaves
Interleave, duration : 42 ms (1.00 video frame)
Interleave, preload duration : 500 ms

Скриншоты:

Скачать

Скачать торрент!

Как скачивать? · Что такое торрент? · Рейтинг и ограничения

Сайт не распространяет и не хранит электронные версии произведений, а лишь предоставляет доступ к создаваемому пользователями каталогу ссылок на торрент-файлы, которые содержат только списки хеш-сумм



Последний раз редактировалось: oppolon (2011-09-26 23:07), всего редактировалось 9 раз(а)
[Профиль] [ЛС]

Temiks

Стаж: 6 лет 2 месяца

Сообщений: 147

Откуда: Украина

Пост Пост: #2 от 24-Сен-2011 20:56 (спустя 4 часа)

[Цитировать]

1. Скриншоты неправильных размеров
[Профиль] [ЛС]

oppolon ®

Стаж: 5 лет 2 месяца

Сообщений: 11

Откуда: Moscow

Пост Пост: #3 от 24-Сен-2011 21:15 (спустя 18 минут)

[Цитировать]

как поменять скриншоты?
[Профиль] [ЛС]

Temiks

Стаж: 6 лет 2 месяца

Сообщений: 147

Откуда: Украина

Пост Пост: #4 от 24-Сен-2011 21:21 (спустя 5 минут)

[Цитировать]

Новые скриншоты можно добавить тут http://alltorrents.net/gallery.php
Потом нужно перейти в этот топик и нажать на ссылку "Изменить"
Далее найти где расположены скриншоты(в самом конце кода)
Удалить старые скриншоты(удалить код)
И на конец добавить новые скриншоты, копировать ссылки из этого адреса http://alltorrents.net/gallery.php
[Профиль] [ЛС]

oppolon ®

Стаж: 5 лет 2 месяца

Сообщений: 11

Откуда: Moscow

Пост Пост: #5 от 24-Сен-2011 22:42 (спустя 1 час 20 минут)

[Цитировать]

вроде исправил. посмотри, плиз...
[Профиль] [ЛС]

oppolon ®

Стаж: 5 лет 2 месяца

Сообщений: 11

Откуда: Moscow

Пост Пост: #6 от 24-Сен-2011 22:45 (спустя 2 минуты)

[Цитировать]

уточни, то что скачка своего же торента (речь идет о торенте по 8 сезону сериала 24 часа) у меня не происходит - это результат администрирования со стороны группы администраторов?
[Профиль] [ЛС]

Temiks

Стаж: 6 лет 2 месяца

Сообщений: 147

Откуда: Украина

Пост Пост: #7 от 28-Сен-2011 21:59 (спустя 3 дня)

[Цитировать]

Проверил.
[Профиль] [ЛС]
Показать сообщения:    
Ответить на тему

Текущее время: Сегодня 22:38

Часовой пояс: GMT + 4



Вы не можете начинать темы
Вы не можете отвечать на сообщения
Вы не можете редактировать свои сообщения
Вы не можете удалять свои сообщения
Вы не можете голосовать в опросах
Вы не можете прикреплять файлы к сообщениям
Вы не можете скачивать файлы