Лотерейный Билет / Lottery Ticket (Эрик Уайт / Erik White) [2010, США, Комедия, DVDRip] VO Денис Шадинский / Кураж-Бамбей

Ответить на тему
 
Автор Сообщение

user ®

Стаж: 7 лет 7 месяцев

Сообщений: 20008

Пост Пост: #1 от 21-Сен-2011 22:22

[Цитировать]

Лотерейный билет / Lottery Ticket
Страна: США
Жанр: Комедия
Год выпуска: 2010
Продолжительность: 01:39:05
Перевод: Профессиональный (одноголосый закадровый) Денис Шадинский по версии
Cубтитры: нет
Режиссер: Эрик Уайт
В ролях: Бау Вау, Айс Кьюб, Ти-Пэйн, Брэндон Т. Джексон, Нэтари Наутон, Лоретта Дивайн, Кит Дэвид, Терри Крюс, Майк Еппс, Чарльз К. Мерфи, Билл Беллами
Описание: Выигравшему джекпот в лотерее накануне 4 июля Кевину Карсону предстоит не только пережить долгий уикенд, скрывая билет от многочисленных завистников, но решить, как с умом потратить невероятные $ 370.000.000.
Доп. информация: Внимание ненормативная лексика!
Сэмпл: http://multi-up.com/536339
Качество видео: DVDRip (источник найден в сети)
Формат видео: AVI
Видео: Xvid, 704x288 (2.44:1), 23.976 fps, 1809 kb/s
Аудио: MP3 2.0, 44.1 kHz, 160 kb/s

MediaInfo

Полное имя : Лотерейный билет Lottery Ticket (2010HDRip)\Lottery.Ticket.HDRip.1400MB.avi
Формат : AVI
Формат/Информация : Audio Video Interleave
Размер файла : 1,37 Гбайт
Продолжительность : 1 ч. 39 м.
Общий поток : 1979 Кбит/сек
Программа кодирования : VirtualDubMod 1.5.10.3 (build 2550/release)
Библиотека кодирования : VirtualDubMod build 2550/release
Видео
Идентификатор : 0
Формат : MPEG-4 Visual
Профиль формата : Advanced Simple@L5
Параметр BVOP формата : 1
Параметр QPel формата : Нет
Параметр GMC формата : Без точки перехода
Параметр матрицы формата : Default (MPEG)
Идентификатор кодека : XVID
Идентификатор кодека/Подсказка : XviD
Продолжительность : 1 ч. 39 м.
Битрейт : 1810 Кбит/сек
Ширина : 704 пикс.
Высота : 288 пикс.
Соотношение сторон : 2,40:1
Частота кадров : 23,976 кадр/сек
Цветовое пространство : YUV
Подвыборка цветности : 4:2:0
Битовая глубина : 8 бит
Тип развёртки : Прогрессивная
Метод сжатия : С потерями
Бит/(Пиксели*Кадры) : 0.372
Размер потока : 1,25 Гбайт (91%)
Библиотека кодирования : XviD 58
Аудио
Идентификатор : 1
Формат : MPEG Audio
Версия формата : Version 1
Профиль формата : Layer 3
Идентификатор кодека : 55
Идентификатор кодека/Подсказка : MP3
Продолжительность : 1 ч. 39 м.
Вид битрейта : Постоянный
Битрейт : 160 Кбит/сек
Каналы : 2 канала
Частота : 44,1 КГц
Метод сжатия : С потерями
Размер потока : 113 Мбайт (8%)
Выравнивание : Разделение по промежуткам
Продолжительность промежутка : 42 мс. (1,00 видеокадр)
Время предзагрузки промежутка : 500 ms

Скриншот c названием фильма

Скриншоты


сравнение с [url=http://***/forum/viewtopic.php?t=3686136]719 Mb[/url]
Скачать

Скачать торрент!

Как скачивать? · Что такое торрент? · Рейтинг и ограничения

Сайт не распространяет и не хранит электронные версии произведений, а лишь предоставляет доступ к создаваемому пользователями каталогу ссылок на торрент-файлы, которые содержат только списки хеш-сумм

[Профиль] [ЛС]
Показать сообщения:    
Ответить на тему

Текущее время: Сегодня 00:15

Часовой пояс: GMT + 4



Вы не можете начинать темы
Вы не можете отвечать на сообщения
Вы не можете редактировать свои сообщения
Вы не можете удалять свои сообщения
Вы не можете голосовать в опросах
Вы не можете прикреплять файлы к сообщениям
Вы не можете скачивать файлы