Никогда не сдавайся 2 / Never Back Down 2 (Майкл Джей Уайт / Michael Jai White) [2011, CША, боевик, DVDRip] MVO R5

Ответить на тему
 
Автор Сообщение

user ®

Стаж: 7 лет 7 месяцев

Сообщений: 20008

Пост Пост: #1 от 21-Сен-2011 22:21

[Цитировать]

Никогда не сдавайся 2 / Never Back Down 2 Год выпуска: 2011
Страна: США
Киностудия: Baumgarten Management, Mandalay Entertainment, Sony Pictures
Жанр: Боевик
Продолжительность: 1:39:22
Перевод: Профессиональный (многоголосый) лицензия
Субтитры: нет
Оригинальная аудидорожка: нет
Режиссер: Майкл Джей Уайт / Michael Jai White
В ролях: Стейси Асаро, Грэйлен Брайант Бэнкс, Рас Блэквелл, Бо Брассо, Эдди Браво, Джуд Кэмбайс, Грант Кейс, Трейс Шерами, Марго Николь Кларк, Жерардо Девила...
Описание: Четверо бойцов объединяются под руководством бывшей восходящей звезды ММА — Смешанных Боевых Искусств, — чтобы в конечном счете сразиться друг с другом и определить сильнейшего из них.…- -Качество видео: DVDRip, источник [url=http://***/forum/viewtopic.php?t=3723988]DVD5[/url]
Формат видео: AVI
Видео: 704x384 (16:9), 25 fps, XviD ~ 1708 kbps avg, 0.253 bit/pixel
Аудио: Русский, 48 kHz, AC3, 6 ch, 384.00 kbps Constant

MediaInfo

Общее
Полное имя : Nikogda.ne.sdavajsja.2.2011.P.DVDRip.avi
Формат : AVI
Формат/Информация : Audio Video Interleave
Размер файла : 1,46 Гбайт
Продолжительность : 1 ч. 39 м.
Общий поток : 2101 Кбит/сек
Программа кодирования : VirtualDubMod 1.5.10.3 | www.virtualdub-fr.org || (build 2550/release)
Библиотека кодирования : VirtualDubMod build 2550/release
Видео
Идентификатор : 0
Формат : MPEG-4 Visual
Профиль формата : Advanced Simple@L5
Параметр BVOP формата : 1
Параметр QPel формата : Нет
Параметр GMC формата : Без точки перехода
Параметр матрицы формата : Выборочная
Идентификатор кодека : XVID
Идентификатор кодека/Подсказка : XviD
Продолжительность : 1 ч. 39 м.
Битрейт : 1708 Кбит/сек
Ширина : 704 пикселей
Высота : 384 пикселей
Соотношение сторон : 16:9
Частота кадров : 25,000 кадров/сек
Цветовое пространство : YUV
Субдискретизация насыщенности : 4:2:0
Битовая глубина : 8 бит
Тип развёртки : Прогрессивная
Метод сжатия : С потерями
Бит/(Пиксели*Кадры) : 0.253
Размер потока : 1,19 Гбайт (81%)
Библиотека кодирования : XviD 1.2.1 (UTC 2008-12-04)
Аудио
Идентификатор : 1
Формат : AC-3
Формат/Информация : Audio Coding 3
Расширение режима : CM (complete main)
Идентификатор кодека : 2000
Продолжительность : 1 ч. 39 м.
Вид битрейта : Постоянный
Битрейт : 384 Кбит/сек
Каналы : 6 каналов
Расположение каналов : Front: L C R, Side: L R, LFE
Частота : 48,0 КГц
Битовая глубина : 16 бит
Метод сжатия : С потерями
Размер потока : 273 Мбайт (18%)
Выравнивание : Разделение по промежуткам
Продолжительность промежутка : 40 мс. (1,00 видеокадр)
Время предзагрузки промежутка : 500 ms

Скриншот с названием

Скриншоты

Скачать

Скачать торрент!

Как скачивать? · Что такое торрент? · Рейтинг и ограничения

Сайт не распространяет и не хранит электронные версии произведений, а лишь предоставляет доступ к создаваемому пользователями каталогу ссылок на торрент-файлы, которые содержат только списки хеш-сумм

[Профиль] [ЛС]
Показать сообщения:    
Ответить на тему

Текущее время: Сегодня 13:33

Часовой пояс: GMT + 4



Вы не можете начинать темы
Вы не можете отвечать на сообщения
Вы не можете редактировать свои сообщения
Вы не можете удалять свои сообщения
Вы не можете голосовать в опросах
Вы не можете прикреплять файлы к сообщениям
Вы не можете скачивать файлы