Страшно красив / Вeastly (Даниел Барнз / Daniel Barnz) [2011, США / CBS Films, фэнтези, драма, мелодрама, HDRip] Dub

Ответить на тему
 
Автор Сообщение

user ®

Стаж: 7 лет 7 месяцев

Сообщений: 20008

Пост Пост: #1 от 21-Сен-2011 22:17

[Цитировать]

Страшно красив / Beastly
Страна: США / CBS Films
Жанр: фэнтези, драма, мелодрама
Год выпуска: 2011
Продолжительность: 01:25:43
Перевод: Профессиональный (дублированный) [лицензия] Звук чистый, не с TC
Cубтитры: нет
Режиссер: Даниел Барнз / Daniel Barnz
В ролях: Алекс Петтифер, Джастин Брэдли, Мэри-Кейт Олсен, Дакота Джонсон, Эрик Кнудсен, Ванесса Энн Хадженс, Карл Грабошас, Питер Краузе, Лиза Гэй Хэмилтон, Джонатан Дубски
Описание: Очередная интерпретация классической истории «Красавицы и чудовища», перемещающая зрителя в современный Манхэттен. В нём живёт изуродованный наложенным проклятьем юноша Кайл, который хочет найти любовь. Если он обретёт вторую половинку, его прежняя сказочная внешность снова вернётся к нему.
Доп. информация:



Релиз группы:
Качество видео: HDRip
Формат видео: AVI
Видео: 720x304 (2.37:1), 23.976 fps, XviD build 47 ~1830 kbps avg, 0.35 bit/pixel
Аудио: 48 kHz, AC3 Dolby Digital, 3/2 (L,C,R,l,r) + LFE ch, ~448.00 kbps avg

MediaInfo

General
Format : AVI
Format/Info : Audio Video Interleave
File size : 1.37 GiB
Duration : 1h 25mn
Overall bit rate : 2 288 Kbps
Movie name : Strashno.krasiv.2011.D
Genre : Fantasy
Writing application : VirtualDubMod 1.5.4.1 (build 2178/release)
Original source form/Name : Movie
Video
ID : 0
Format : MPEG-4 Visual
Format profile : Advanced Simple@L5
Format settings, BVOP : 2
Format settings, QPel : No
Format settings, GMC : No warppoints
Format settings, Matrix : Custom
Codec ID : XVID
Codec ID/Hint : XviD
Duration : 1h 25mn
Bit rate : 1 830 Kbps
Width : 720 pixels
Height : 304 pixels
Display aspect ratio : 2.35:1
Frame rate : 23.976 fps
Color space : YUV
Chroma subsampling : 4:2:0
Bit depth : 8 bits
Scan type : Progressive
Compression mode : Lossy
Bits/(Pixel*Frame) : 0.349
Stream size : 1.10 GiB (80%)
Writing library : XviD 1.2.0.dev47 (UTC 2006-11-01)
Audio
ID : 1
Format : AC-3
Format/Info : Audio Coding 3
Mode extension : CM (complete main)
Codec ID : 2000
Duration : 1h 25mn
Bit rate mode : Constant
Bit rate : 448 Kbps
Channel(s) : 6 channels
Channel positions : Front: L C R, Side: L R, LFE
Sampling rate : 48.0 KHz
Bit depth : 16 bits
Compression mode : Lossy
Stream size : 275 MiB (20%)
Alignment : Split accross interleaves
Interleave, duration : 42 ms (1.00 video frame)
Interleave, preload duration : 500 ms

Скриншот c названием фильма

Скриншоты




Скачать

Скачать торрент!

Как скачивать? · Что такое торрент? · Рейтинг и ограничения

Сайт не распространяет и не хранит электронные версии произведений, а лишь предоставляет доступ к создаваемому пользователями каталогу ссылок на торрент-файлы, которые содержат только списки хеш-сумм

[Профиль] [ЛС]

asdasd2

Стаж: 5 лет 6 месяцев

Сообщений: 5

Пост Пост: #2 от 11-Ноя-2011 21:45 (спустя 1 месяц 19 дней)

[Цитировать]

средненько.на 1раз
[Профиль] [ЛС]

saave

Стаж: 5 лет 2 месяца

Сообщений: 20

Пост Пост: #3 от 26-Дек-2011 23:40 (спустя 1 месяц 15 дней)

[Цитировать]

полностью согласен, фильм исключительно для просмотра на 1 раз cc
[Профиль] [ЛС]

BlackSky

Пол:

Стаж: 5 лет 2 месяца

Сообщений: 38

Откуда: Рязань

Пост Пост: #4 от 26-Дек-2011 23:55 (спустя 14 минут)

[Цитировать]

Ходил в кино на этот фильм, в зале был я с подругой, еще один парень с девушкой, остальную большую часть зала занимали только лица женского пола...

_________________
Мы рождены, чтоб сказку сделать былью
[Профиль] [ЛС]

andreik96

Стаж: 5 лет 1 месяц

Сообщений: 10

Откуда: Екатеринбург

Пост Пост: #5 от 05-Янв-2012 13:14 (спустя 9 дней)

[Цитировать]

банальная история. грим могли и пострашнее сделать. хотя жене фильм понравился
[Профиль] [ЛС]
Показать сообщения:    
Ответить на тему

Текущее время: Сегодня 02:08

Часовой пояс: GMT + 4



Вы не можете начинать темы
Вы не можете отвечать на сообщения
Вы не можете редактировать свои сообщения
Вы не можете удалять свои сообщения
Вы не можете голосовать в опросах
Вы не можете прикреплять файлы к сообщениям
Вы не можете скачивать файлы