Форсаж 5 / Fast Five (Джастин Лин) [2011, боевик, драма, криминал, DVD9]

Ответить на тему
 
Автор Сообщение

Vyacheslav2 ®

Стаж: 5 лет 7 месяцев

Сообщений: 62

Пост Пост: #1 от 21-Авг-2011 23:51

[Цитировать]

Форсаж 5 / Fast Five (2011) DVD9 -Русское название: Форсаж 5
Оригинальное название: Fast Five
Год выпуска: 2011
Производство: США
Студия: Universal Pictures
Бюджет: $125 000 000
Жанр: Боевик, Драма, Криминал
Перевод: Дублированный
Субтитры: Английские, Эстонские, Латвийские, Литовские, Украинские, Русские(комментарии)-
Дата мировой премьеры: 15 апреля 2011
Дата российской премьеры: 28 апреля 2011
Дата выхода DVD релиза: 25 августа 2011, «Двадцатый Век Фокс СНГ»
Режиссер: Джастин Лин
Продюсер: Вин Дизель, Майкл Фоттрел, Нил Х. Мориц
Актеры: Вин Дизель, Пол Уокер, Джордана Брюстер, Тайриз Гибсон, Лудакрис, Эльза Патаки, Галь Гадот, Тего Калдерон, Дон Омар, Мэтт Шульце-Описание фильма:
Бывший полицейский Брайан О`Коннер вместе с бывалым лихачом Домиником Торетто совсем немного увлеклись жизнью вне закона. После того, как Брайан и Миа Торетто освободили Доминика, они не рискуют долго задерживаться на одном месте, так как являются желанной целью порядком недовольных копов.
Продолжительность: 02:05:00
Качество видео: DVD9
Видеокодек: MPEG-2
Битрейт видео: ~5906 kb/s
Размер кадра: PAL 16:9 (720x576)
Аудиокодек и битрейт аудио:
Аудио #1: Английский ( AC3, 6 ch, 384 kb/s)
Аудио #2: Русский ( AC3, 6 ch, 384 kb/s )
Аудио #3: Украинский ( AC3, 6 ch, 384 kb/s )
Аудио #4: Английский ( AC3, 2 ch, 192 kb/s) комментарии
Дополнительно: Киноролики, Удаленные сцены, Комментарии режиссера-

MediaInfo

Общее
Полное имя : D:\Форсаж 5\Форсаж 5 DVD9\VIDEO_TS\VTS_05_1.VOB
Формат : MPEG-PS
Размер файла : 1024 Мбайт
Продолжительность : 19 м.
Общий поток : 7398 Кбит/сек
Видео
Идентификатор : 224 (0xE0)
Формат : MPEG Video
Версия формата : Version 2
Профиль формата : Main@Main
Параметр BVOP формата : Да
Параметр матрицы формата : Выборочная
Параметр GOP формата : M=3, N=12
Продолжительность : 19 м.
Вид битрейта : Переменный
Битрейт : 5906 Кбит/сек
Максимальный битрейт : 9800 Кбит/сек
Ширина : 720 пикселей
Высота : 576 пикселей
Соотношение сторон : 16:9
Частота кадров : 25,000 кадров/сек
Стандарт вещания : Component
Цветовое пространство : YUV
Субдискретизация насыщенности : 4:2:0
Битовая глубина : 8 бит
Тип развёртки : Чересстрочная
Порядок развёртки : Верхнее поле первое
Метод сжатия : С потерями
Бит/(Пиксели*Кадры) : 0.570
Размер потока : 818 Мбайт (80%)
Аудио #1
Идентификатор : 189 (0xBD)-128 (0x80)
Формат : AC-3
Формат/Информация : Audio Coding 3
Расширение режима : CM (complete main)
Режим смешивания : DVD-Video
Продолжительность : 19 м.
Вид битрейта : Постоянный
Битрейт : 384 Кбит/сек
Каналы : 6 каналов
Расположение каналов : Front: L C R, Side: L R, LFE
Частота : 48,0 КГц
Битовая глубина : 16 бит
Метод сжатия : С потерями
Размер потока : 53,1 Мбайт (5%)
Аудио #2
Идентификатор : 189 (0xBD)-129 (0x81)
Формат : AC-3
Формат/Информация : Audio Coding 3
Расширение режима : CM (complete main)
Режим смешивания : DVD-Video
Продолжительность : 19 м.
Вид битрейта : Постоянный
Битрейт : 384 Кбит/сек
Каналы : 6 каналов
Расположение каналов : Front: L C R, Side: L R, LFE
Частота : 48,0 КГц
Битовая глубина : 16 бит
Метод сжатия : С потерями
Размер потока : 53,1 Мбайт (5%)
Аудио #3
Идентификатор : 189 (0xBD)-130 (0x82)
Формат : AC-3
Формат/Информация : Audio Coding 3
Расширение режима : CM (complete main)
Режим смешивания : DVD-Video
Продолжительность : 19 м.
Вид битрейта : Постоянный
Битрейт : 384 Кбит/сек
Каналы : 6 каналов
Расположение каналов : Front: L C R, Side: L R, LFE
Частота : 48,0 КГц
Битовая глубина : 16 бит
Метод сжатия : С потерями
Размер потока : 53,1 Мбайт (5%)
Аудио #4
Идентификатор : 189 (0xBD)-131 (0x83)
Формат : AC-3
Формат/Информация : Audio Coding 3
Профиль формата : Dolby Digital
Расширение режима : CM (complete main)
Режим смешивания : DVD-Video
Продолжительность : 19 м.
Вид битрейта : Постоянный
Битрейт : 192 Кбит/сек
Каналы : 2 канала
Расположение каналов : Front: L R
Частота : 48,0 КГц
Битовая глубина : 16 бит
Метод сжатия : С потерями
Размер потока : 26,6 Мбайт (3%)
Текст #1
Идентификатор : 189 (0xBD)-36 (0x24)
Формат : RLE
Формат/Информация : Run-length encoding
Режим смешивания : DVD-Video
Продолжительность : 19 м.
Задержка видео : 4 с. 360 мс.
Текст #2
Идентификатор : 189 (0xBD)-32 (0x20)
Формат : RLE
Формат/Информация : Run-length encoding
Режим смешивания : DVD-Video
Текст #3
Идентификатор : 189 (0xBD)-33 (0x21)
Формат : RLE
Формат/Информация : Run-length encoding
Режим смешивания : DVD-Video
Текст #4
Идентификатор : 189 (0xBD)-34 (0x22)
Формат : RLE
Формат/Информация : Run-length encoding
Режим смешивания : DVD-Video
Текст #5
Идентификатор : 189 (0xBD)-35 (0x23)
Формат : RLE
Формат/Информация : Run-length encoding
Режим смешивания : DVD-Video
Меню

DVDInfo

Title: Форсаж 5 DVD9
Size: 7.55 Gb ( 7 920 200,00 KBytes ) - DVD-9
Enabled regions: 1, 2, 3, 4, 5, 6, 7, 8
VTS_01 :
Play Length: 00:00:00
Video: PAL 16:9 (720x576) VBR, Auto Letterboxed
VTS_02 :
Play Length: 00:00:12+00:01:51+00:00:08+00:00:08+00:00:08+00:01:09+00:02:27+00:00:08+00:02:21+00:01:01
Video: PAL 16:9 (720x576) VBR, Auto Letterboxed
Audio:
English (Dolby AC3, 2 ch)
Subtitles:
English
Russian
VTS_03 :
Play Length: 00:00:00
Video: PAL 16:9 (720x576) VBR, Auto Letterboxed
VTS_04 :
Play Length: 00:01:37+00:04:08
Video: PAL 16:9 (720x576) VBR, Auto Letterboxed
Audio:
English (Dolby AC3, 2 ch)
Subtitles:
English
Russian
VTS_05 :
Play Length: 02:05:00
Video: PAL 16:9 (720x576) VBR, Auto Letterboxed
Audio:
English (Dolby AC3, 6 ch)
Russian (Dolby AC3, 6 ch)
Ukrainian (Dolby AC3, 6 ch)
English (Dolby AC3, 2 ch)
Subtitles:
English
Estonian
Latvian
Lithuanian
English
English
Russian
Ukrainian
VTS_06 :
Play Length: 00:09:45
Video: PAL 16:9 (720x576) VBR, Auto Letterboxed
Audio:
English (Dolby AC3, 2 ch)
Subtitles:
English
Russian
VTS_07 :
Play Length: 00:00:23
Video: PAL 16:9 (720x576) VBR, Auto Letterboxed
Audio:
English (Dolby AC3, 6 ch)
VTS_08 :
Play Length: 00:00:14
Video: PAL 16:9 (720x576) VBR, Auto Letterboxed
Audio:
English (Dolby AC3, 6 ch)
-

Скриншоты

Скриншоты меню

Скачать

Скачать торрент!

Как скачивать? · Что такое торрент? · Рейтинг и ограничения

Сайт не распространяет и не хранит электронные версии произведений, а лишь предоставляет доступ к создаваемому пользователями каталогу ссылок на торрент-файлы, которые содержат только списки хеш-сумм


_________________
[Профиль] [ЛС]
Показать сообщения:    
Ответить на тему

Текущее время: Сегодня 20:05

Часовой пояс: GMT + 4



Вы не можете начинать темы
Вы не можете отвечать на сообщения
Вы не можете редактировать свои сообщения
Вы не можете удалять свои сообщения
Вы не можете голосовать в опросах
Вы не можете прикреплять файлы к сообщениям
Вы не можете скачивать файлы