(Piano Solo) Sergei Rachmaninov (Рахманинов Сергей) - The Complete Solo Piano Music played by Howard Shelley - FLAC (tracks+.cue), lossless

Ответить на тему
 
Автор Сообщение

admin ®

Пол:

Стаж: 6 лет 11 месяцев

Сообщений: 735

Пост Пост: #1 от 17-Авг-2011 13:22

[Цитировать]

The Complete Solo Piano Music of Sergei Rachmaninov played by Howard Shelley
Жанр: Piano Solo
Год выпуска диска: 1993
Производитель диска: Hyperion
Аудио кодек: FLAC
Тип рипа: tracks+.cue
Битрейт аудио: lossless
Продолжительность: 7 часов 10 минут
pdf Буклет в раздаче

CD 1 Morceaux de fantaisie, Op 3; Preludes, Op 23

CD 1 Morceaux de fantaisie, Op 3; Preludes, Op 23
Morceaux de fantaisie, Op 3
1 No 1: Йlйgie in E flat minor [5'47]
2 No 2: Prelude in C sharp minor [5'28]
3 No 3: Mйlodie in E major [5'05]
4 No 4: Polichinelle in F sharp minor [3'09]
5 No 5: Sйrйnade in B flat minor [4'06]
Preludes, Op 23
6 No 01: F sharp minor [3'37]
7 No 02: B flat major [3'36]
8 No 03: D minor [3'10]
9 No 04: D major [4'43]
10 No 05: G minor [4'12]
11 No 06: E flat major [3'46]
12 No 07: C minor [2'36]
13 No 08: A flat major [3'30]
14 No 09: E flat minor [2'00]
15 No 10: G flat major [3'58]

Log

Exact Audio Copy V0.99 prebeta 5 from 4. May 2009
EAC extraction logfile from 14. May 2010, 20:27
Howard Shelley / Rachmaninov Solo Piano Music 1
Used drive : Optiarc DVD RW AD-7241S Adapter: 5 ID: 0
Read mode : Secure
Utilize accurate stream : Yes
Defeat audio cache : Yes
Make use of C2 pointers : No
Read offset correction : 48
Overread into Lead-In and Lead-Out : No
Fill up missing offset samples with silence : Yes
Delete leading and trailing silent blocks : No
Null samples used in CRC calculations : Yes
Used interface : Native Win32 interface for Win NT & 2000
Gap handling : Appended to previous track
Used output format : User Defined Encoder
Selected bitrate : 768 kBit/s
Quality : High
Add ID3 tag : No
Command line compressor : C:\Program Files\Exact Audio Copy\Flac\flac.exe
Additional command line options : -8 -V -T "ARTIST=%a" -T "TITLE=%t" -T "ALBUM=%g" -T "DATE=%y" -T "TRACKNUMBER=%n" -T "GENRE=%m" -T "COMMENT=EAC FLAC -8" %s
TOC of the extracted CD
Track | Start | Length | Start sector | End sector
---------------------------------------------------------
1 | 0:00.32 | 5:51.25 | 32 | 26381
2 | 5:51.57 | 5:31.35 | 26382 | 51241
3 | 11:23.17 | 5:05.60 | 51242 | 74176
4 | 16:29.02 | 3:13.03 | 74177 | 88654
5 | 19:42.05 | 4:18.10 | 88655 | 108014
6 | 24:00.15 | 3:38.37 | 108015 | 124401
7 | 27:38.52 | 3:38.15 | 124402 | 140766
8 | 31:16.67 | 3:11.60 | 140767 | 155151
9 | 34:28.52 | 4:49.05 | 155152 | 176831
10 | 39:17.57 | 4:15.53 | 176832 | 196009
11 | 43:33.35 | 3:49.40 | 196010 | 213224
12 | 47:23.00 | 2:37.60 | 213225 | 225059
13 | 50:00.60 | 3:30.25 | 225060 | 240834
14 | 53:31.10 | 2:02.25 | 240835 | 250009
15 | 55:33.35 | 4:01.00 | 250010 | 268084
Track 1
Filename E:\Раздача\образы музыки на раздачу\SERGEY RACHMANINOV\1\01. Howard Shelley – Morceaux de Fantasie Op.3 No.1- Elйgie.wav
Pre-gap length 0:00:02.42
Peak level 94.7 %
Track quality 99.9 %
Test CRC CAEA3EA6
Copy CRC CAEA3EA6
Cannot be verified as accurate (confidence 2) [C36F1015], AccurateRip returned [EA853C1D]
Copy OK
Track 2
Filename E:\Раздача\образы музыки на раздачу\SERGEY RACHMANINOV\1\02. Howard Shelley – Morceaux de Fantasie Op.3 No.2- Prelude in C# minor.wav
Pre-gap length 0:00:03.96
Peak level 95.3 %
Track quality 100.0 %
Test CRC E1E1A383
Copy CRC E1E1A383
Cannot be verified as accurate (confidence 2) [5631C814], AccurateRip returned [757EAA28]
Copy OK
Track 3
Filename E:\Раздача\образы музыки на раздачу\SERGEY RACHMANINOV\1\03. Howard Shelley – Morceaux de Fantasie Op.3 No.3- Mйlodie.wav
Pre-gap length 0:00:04.26
Peak level 65.1 %
Track quality 100.0 %
Test CRC 46B26DAA
Copy CRC 46B26DAA
Cannot be verified as accurate (confidence 2) [581D4BDC], AccurateRip returned [75CD60D5]
Copy OK
Track 4
Filename E:\Раздача\образы музыки на раздачу\SERGEY RACHMANINOV\1\04. Howard Shelley – Morceaux de Fantasie Op.3 No.4- Polichinelle.wav
Pre-gap length 0:00:01.49
Peak level 79.9 %
Track quality 100.0 %
Test CRC 0B9877DC
Copy CRC 0B9877DC
Cannot be verified as accurate (confidence 2) [2408F80C], AccurateRip returned [2AF328F8]
Copy OK
Track 5
Filename E:\Раздача\образы музыки на раздачу\SERGEY RACHMANINOV\1\05. Howard Shelley – Morceaux de Fantasie Op.3 No.5- Sйrйnade.wav
Pre-gap length 0:00:01.93
Peak level 88.0 %
Track quality 100.0 %
Test CRC BE6E1E5C
Copy CRC BE6E1E5C
Cannot be verified as accurate (confidence 2) [4D9A6F76], AccurateRip returned [43A65782]
Copy OK
Track 6
Filename E:\Раздача\образы музыки на раздачу\SERGEY RACHMANINOV\1\06. Howard Shelley – Ten Preludes Op.23 No.1 in F# minor.wav
Pre-gap length 0:00:07.40
Peak level 68.5 %
Track quality 99.9 %
Test CRC A256E407
Copy CRC A256E407
Cannot be verified as accurate (confidence 2) [FF830182], AccurateRip returned [04991ACD]
Copy OK
Track 7
Filename E:\Раздача\образы музыки на раздачу\SERGEY RACHMANINOV\1\07. Howard Shelley – Ten Preludes Op.23 No.2 in Bb.wav
Peak level 98.5 %
Track quality 100.0 %
Test CRC B97F0657
Copy CRC B97F0657
Cannot be verified as accurate (confidence 2) [556162EB], AccurateRip returned [3F38E330]
Copy OK
Track 8
Filename E:\Раздача\образы музыки на раздачу\SERGEY RACHMANINOV\1\08. Howard Shelley – Ten Preludes Op.23 No.3 in D minor.wav
Pre-gap length 0:00:00.76
Peak level 79.8 %
Track quality 100.0 %
Test CRC 5CD60C86
Copy CRC 5CD60C86
Cannot be verified as accurate (confidence 2) [BA1AB11C], AccurateRip returned [ED3E2CA6]
Copy OK
Track 9
Filename E:\Раздача\образы музыки на раздачу\SERGEY RACHMANINOV\1\09. Howard Shelley – Ten Preludes Op.23 No.4 in D.wav
Peak level 76.6 %
Track quality 100.0 %
Test CRC 62FDC2AA
Copy CRC 62FDC2AA
Cannot be verified as accurate (confidence 2) [7EC14516], AccurateRip returned [9691CA77]
Copy OK
Track 10
Filename E:\Раздача\образы музыки на раздачу\SERGEY RACHMANINOV\1\10. Howard Shelley – Ten Preludes Op.23 No.5 in G minor.wav
Pre-gap length 0:00:04.29
Peak level 92.4 %
Track quality 99.9 %
Test CRC 34791F0C
Copy CRC 34791F0C
Cannot be verified as accurate (confidence 2) [429D8FD3], AccurateRip returned [7CC11695]
Copy OK
Track 11
Filename E:\Раздача\образы музыки на раздачу\SERGEY RACHMANINOV\1\11. Howard Shelley – Ten Preludes Op.23 No.6 in Eb.wav
Pre-gap length 0:00:03.00
Peak level 67.3 %
Track quality 100.0 %
Test CRC 24D8019B
Copy CRC 24D8019B
Cannot be verified as accurate (confidence 2) [BF0051C5], AccurateRip returned [3297CE34]
Copy OK
Track 12
Filename E:\Раздача\образы музыки на раздачу\SERGEY RACHMANINOV\1\12. Howard Shelley – Ten Preludes Op.23 No.7 in C minor.wav
Pre-gap length 0:00:01.64
Peak level 91.8 %
Track quality 100.0 %
Test CRC F24C624E
Copy CRC F24C624E
Cannot be verified as accurate (confidence 2) [D8CE04D3], AccurateRip returned [036765BB]
Copy OK
Track 13
Filename E:\Раздача\образы музыки на раздачу\SERGEY RACHMANINOV\1\13. Howard Shelley – Ten Preludes Op.23 No.8 in Ab.wav
Pre-gap length 0:00:00.66
Peak level 53.1 %
Track quality 100.0 %
Test CRC 90A3F5AF
Copy CRC 90A3F5AF
Cannot be verified as accurate (confidence 2) [02514FE2], AccurateRip returned [87B3FC5E]
Copy OK
Track 14
Filename E:\Раздача\образы музыки на раздачу\SERGEY RACHMANINOV\1\14. Howard Shelley – Ten Preludes Op.23 No.9 in Eb minor.wav
Peak level 77.8 %
Track quality 100.0 %
Test CRC 70C50049
Copy CRC 70C50049
Cannot be verified as accurate (confidence 2) [D9D76A14], AccurateRip returned [61E9A6B8]
Copy OK
Track 15
Filename E:\Раздача\образы музыки на раздачу\SERGEY RACHMANINOV\1\15. Howard Shelley – Ten Preludes Op.23 No.10 in Gb.wav
Pre-gap length 0:00:01.17
Peak level 45.1 %
Track quality 100.0 %
Test CRC 390236F4
Copy CRC 390236F4
Cannot be verified as accurate (confidence 2) [104B5A84], AccurateRip returned [7A0A986C]
Copy OK
No tracks could be verified as accurate
You may have a different pressing from the one(s) in the database
No errors occurred
End of status report

Cue

REM GENRE "Piano Solo"
REM DATE 1983
REM DISCID CA0DF60F
REM COMMENT "ExactAudioCopy v0.99pb5"
PERFORMER "Howard Shelley"
TITLE "Rachmaninov Solo Piano Music 1"
FILE "01. Howard Shelley – Morceaux de Fantasie Op.3 No.1- Elйgie.wav" WAVE
TRACK 01 AUDIO
TITLE "Morceaux de Fantasie Op.3 No.1: Elйgie "
PERFORMER "Howard Shelley"
PREGAP 00:00:32
INDEX 01 00:00:00
TRACK 02 AUDIO
TITLE "Morceaux de Fantasie Op.3 No.2: Prelude in C# minor "
PERFORMER "Howard Shelley"
INDEX 00 05:47:28
FILE "02. Howard Shelley – Morceaux de Fantasie Op.3 No.2- Prelude in C# minor.wav" WAVE
INDEX 01 00:00:00
TRACK 03 AUDIO
TITLE "Morceaux de Fantasie Op.3 No.3: Mйlodie "
PERFORMER "Howard Shelley"
INDEX 00 05:27:15
FILE "03. Howard Shelley – Morceaux de Fantasie Op.3 No.3- Mйlodie.wav" WAVE
INDEX 01 00:00:00
TRACK 04 AUDIO
TITLE "Morceaux de Fantasie Op.3 No.4: Polichinelle"
PERFORMER "Howard Shelley"
INDEX 00 05:04:23
FILE "04. Howard Shelley – Morceaux de Fantasie Op.3 No.4- Polichinelle.wav" WAVE
INDEX 01 00:00:00
TRACK 05 AUDIO
TITLE "Morceaux de Fantasie Op.3 No.5: Sйrйnade"
PERFORMER "Howard Shelley"
INDEX 00 03:11:08
FILE "05. Howard Shelley – Morceaux de Fantasie Op.3 No.5- Sйrйnade.wav" WAVE
INDEX 01 00:00:00
TRACK 06 AUDIO
TITLE "Ten Preludes Op.23 No.1 in F# minor "
PERFORMER "Howard Shelley"
INDEX 00 04:10:55
FILE "06. Howard Shelley – Ten Preludes Op.23 No.1 in F# minor.wav" WAVE
INDEX 01 00:00:00
FILE "07. Howard Shelley – Ten Preludes Op.23 No.2 in Bb.wav" WAVE
TRACK 07 AUDIO
TITLE "Ten Preludes Op.23 No.2 in Bb"
PERFORMER "Howard Shelley"
INDEX 01 00:00:00
TRACK 08 AUDIO
TITLE "Ten Preludes Op.23 No.3 in D minor"
PERFORMER "Howard Shelley"
INDEX 00 03:37:33
FILE "08. Howard Shelley – Ten Preludes Op.23 No.3 in D minor.wav" WAVE
INDEX 01 00:00:00
FILE "09. Howard Shelley – Ten Preludes Op.23 No.4 in D.wav" WAVE
TRACK 09 AUDIO
TITLE "Ten Preludes Op.23 No.4 in D"
PERFORMER "Howard Shelley"
INDEX 01 00:00:00
TRACK 10 AUDIO
TITLE "Ten Preludes Op.23 No.5 in G minor"
PERFORMER "Howard Shelley"
INDEX 00 04:44:58
FILE "10. Howard Shelley – Ten Preludes Op.23 No.5 in G minor.wav" WAVE
INDEX 01 00:00:00
TRACK 11 AUDIO
TITLE "Ten Preludes Op.23 No.6 in Eb"
PERFORMER "Howard Shelley"
INDEX 00 04:12:53
FILE "11. Howard Shelley – Ten Preludes Op.23 No.6 in Eb.wav" WAVE
INDEX 01 00:00:00
TRACK 12 AUDIO
TITLE "Ten Preludes Op.23 No.7 in C minor "
PERFORMER "Howard Shelley"
INDEX 00 03:47:67
FILE "12. Howard Shelley – Ten Preludes Op.23 No.7 in C minor.wav" WAVE
INDEX 01 00:00:00
TRACK 13 AUDIO
TITLE "Ten Preludes Op.23 No.8 in Ab"
PERFORMER "Howard Shelley"
INDEX 00 02:37:10
FILE "13. Howard Shelley – Ten Preludes Op.23 No.8 in Ab.wav" WAVE
INDEX 01 00:00:00
FILE "14. Howard Shelley – Ten Preludes Op.23 No.9 in Eb minor.wav" WAVE
TRACK 14 AUDIO
TITLE "Ten Preludes Op.23 No.9 in Eb minor "
PERFORMER "Howard Shelley"
INDEX 01 00:00:00
TRACK 15 AUDIO
TITLE "Ten Preludes Op.23 No.10 in Gb"
PERFORMER "Howard Shelley"
INDEX 00 02:01:12
FILE "15. Howard Shelley – Ten Preludes Op.23 No.10 in Gb.wav" WAVE
INDEX 01 00:00:00

CD 2 Morceaux de salon, Op 10; Moments musicaux, Op 16

Morceaux de salon, Op 10
CD2
Morceaux de salon, Op 10
1 No 1: Nocturne in A minor [3'32]
2 No 2: Valse in A major [3'39]
3 No 3: Barcarolle in G minor [4'04]
4 No 4: Mйlodie in E minor [3'50]
5 No 5: Humoresque in G major [3'32]
6 No 6: Romance in F minor [4'00]
7 No 7: Mazurka in D flat major [4'54]
Moments musicaux, Op 16
8 No 1: Andantino in B flat minor [6'54]
9 No 2: Allegretto in E flat minor [2'59]
10 No 3: Andante cantabile in B minor [6'10]
11 No 4: Presto in E minor [2'58]
12 No 5: Adagio sostenuto in D flat major [3'30]
13 No 6: Maestoso in C major [5'05]

Log

Exact Audio Copy V0.99 prebeta 5 from 4. May 2009
EAC extraction logfile from 14. May 2010, 21:02
Howard Shelley / Rachmaninov 2
Used drive : Optiarc DVD RW AD-7241S Adapter: 5 ID: 0
Read mode : Secure
Utilize accurate stream : Yes
Defeat audio cache : Yes
Make use of C2 pointers : No
Read offset correction : 48
Overread into Lead-In and Lead-Out : No
Fill up missing offset samples with silence : Yes
Delete leading and trailing silent blocks : No
Null samples used in CRC calculations : Yes
Used interface : Native Win32 interface for Win NT & 2000
Gap handling : Appended to previous track
Used output format : User Defined Encoder
Selected bitrate : 768 kBit/s
Quality : High
Add ID3 tag : No
Command line compressor : C:\Program Files\Exact Audio Copy\Flac\flac.exe
Additional command line options : -8 -V -T "ARTIST=%a" -T "TITLE=%t" -T "ALBUM=%g" -T "DATE=%y" -T "TRACKNUMBER=%n" -T "GENRE=%m" -T "COMMENT=EAC FLAC -8" %s
TOC of the extracted CD
Track | Start | Length | Start sector | End sector
---------------------------------------------------------
1 | 0:00.00 | 3:37.72 | 0 | 16346
2 | 3:37.72 | 3:41.03 | 16347 | 32924
3 | 7:19.00 | 4:09.70 | 32925 | 51669
4 | 11:28.70 | 3:56.30 | 51670 | 69399
5 | 15:25.25 | 3:36.40 | 69400 | 85639
6 | 19:01.65 | 4:04.72 | 85640 | 104011
7 | 23:06.62 | 5:10.13 | 104012 | 127274
8 | 28:17.00 | 6:59.52 | 127275 | 158751
9 | 35:16.52 | 3:01.20 | 158752 | 172346
10 | 38:17.72 | 6:17.53 | 172347 | 200674
11 | 44:35.50 | 2:59.25 | 200675 | 214124
12 | 47:35.00 | 3:37.00 | 214125 | 230399
13 | 51:12.00 | 5:05.25 | 230400 | 253299
Track 1
Filename E:\Раздача\образы музыки на раздачу\SERGEY RACHMANINOV\2\01. Howard Shelley – Morceaux de Salon Op.10 -I- Nocturne in A minor.wav
Pre-gap length 0:00:02.00
Peak level 81.3 %
Track quality 100.0 %
Test CRC EDA25309
Copy CRC EDA25309
Track not present in AccurateRip database
Copy OK
Track 2
Filename E:\Раздача\образы музыки на раздачу\SERGEY RACHMANINOV\2\02. Howard Shelley – Morceaux de Salon Op.10 -II- Valse in A.wav
Peak level 83.1 %
Track quality 100.0 %
Test CRC 36DB7C09
Copy CRC 36DB7C09
Cannot be verified as accurate (confidence 3) [9E827714], AccurateRip returned [5AACB7FF]
Copy OK
Track 3
Filename E:\Раздача\образы музыки на раздачу\SERGEY RACHMANINOV\2\03. Howard Shelley – Morceaux de Salon Op.10 -III- Barcarolle in G minor.wav
Peak level 63.1 %
Track quality 100.0 %
Test CRC 3C03153A
Copy CRC 3C03153A
Cannot be verified as accurate (confidence 3) [B37FDE2B], AccurateRip returned [DF0BA817]
Copy OK
Track 4
Filename E:\Раздача\образы музыки на раздачу\SERGEY RACHMANINOV\2\04. Howard Shelley – Morceaux de Salon Op.10 -IV- Mйlodie in E minor.wav
Peak level 65.3 %
Track quality 100.0 %
Test CRC 8C31E12C
Copy CRC 8C31E12C
Cannot be verified as accurate (confidence 3) [7A05E155], AccurateRip returned [60B6991A]
Copy OK
Track 5
Filename E:\Раздача\образы музыки на раздачу\SERGEY RACHMANINOV\2\05. Howard Shelley – Morceaux de Salon Op.10 -V- Humoresque in G.wav
Peak level 99.6 %
Track quality 99.9 %
Test CRC 787CD7F6
Copy CRC 787CD7F6
Cannot be verified as accurate (confidence 3) [2DBDB970], AccurateRip returned [B73D0D60]
Copy OK
Track 6
Filename E:\Раздача\образы музыки на раздачу\SERGEY RACHMANINOV\2\06. Howard Shelley – Morceaux de Salon Op.10 - Romance in F minor.wav
Peak level 53.6 %
Track quality 100.0 %
Test CRC 8AD375A6
Copy CRC 8AD375A6
Cannot be verified as accurate (confidence 3) [696FC307], AccurateRip returned [5674E5C4]
Copy OK
Track 7
Filename E:\Раздача\образы музыки на раздачу\SERGEY RACHMANINOV\2\07. Howard Shelley – Morceaux de Salon Op.10 - Mazurka in Db.wav
Peak level 99.6 %
Track quality 100.0 %
Test CRC 0D593CFB
Copy CRC 0D593CFB
Cannot be verified as accurate (confidence 3) [A2E8C323], AccurateRip returned [D30FF878]
Copy OK
Track 8
Filename E:\Раздача\образы музыки на раздачу\SERGEY RACHMANINOV\2\08. Howard Shelley – Moments Musicaux Op.16 - Andantino in Bb minor.wav
Peak level 58.7 %
Track quality 99.9 %
Test CRC 7F1B9649
Copy CRC 7F1B9649
Cannot be verified as accurate (confidence 3) [DADF866F], AccurateRip returned [B080AE86]
Copy OK
Track 9
Filename E:\Раздача\образы музыки на раздачу\SERGEY RACHMANINOV\2\09. Howard Shelley – Moments Musicaux Op.16 - Allegretto in Eb minor.wav
Peak level 72.2 %
Track quality 100.0 %
Test CRC 1BEBEEBF
Copy CRC 1BEBEEBF
Cannot be verified as accurate (confidence 3) [32BE7376], AccurateRip returned [683E99A1]
Copy OK
Track 10
Filename E:\Раздача\образы музыки на раздачу\SERGEY RACHMANINOV\2\10. Howard Shelley – Moments Musicaux Op.16 - Andante cantabile in B minor.wav
Peak level 98.5 %
Track quality 100.0 %
Test CRC BE74BA9A
Copy CRC BE74BA9A
Cannot be verified as accurate (confidence 3) [2CE6572E], AccurateRip returned [8ADB9738]
Copy OK
Track 11
Filename E:\Раздача\образы музыки на раздачу\SERGEY RACHMANINOV\2\11. Howard Shelley – Moments Musicaux Op.16 - Presto in E minor.wav
Peak level 91.6 %
Track quality 99.9 %
Test CRC D3F95EDC
Copy CRC D3F95EDC
Cannot be verified as accurate (confidence 3) [1205BA3E], AccurateRip returned [B27D3821]
Copy OK
Track 12
Filename E:\Раздача\образы музыки на раздачу\SERGEY RACHMANINOV\2\12. Howard Shelley – Moments Musicaux Op.16 - Adagio sostenuto in Db minor.wav
Peak level 69.2 %
Track quality 100.0 %
Test CRC 0754B18E
Copy CRC 0754B18E
Cannot be verified as accurate (confidence 3) [A4B7BF09], AccurateRip returned [182812DD]
Copy OK
Track 13
Filename E:\Раздача\образы музыки на раздачу\SERGEY RACHMANINOV\2\13. Howard Shelley – Moments Musicaux Op.16 - Maestoso in C.wav
Peak level 98.7 %
Track quality 100.0 %
Test CRC 9C43E71A
Copy CRC 9C43E71A
Cannot be verified as accurate (confidence 3) [11DDE533], AccurateRip returned [1B41B455]
Copy OK
12 track(s) could not be verified as accurate
1 track(s) not present in the AccurateRip database
No tracks could be verified as accurate
You may have a different pressing from the one(s) in the database
No errors occurred
End of status report

Cue

REM GENRE "Piano Solo"
REM DATE 1985
REM DISCID CA0D310D
REM COMMENT "ExactAudioCopy v0.99pb5"
PERFORMER "Howard Shelley"
TITLE "Rachmaninov 2"
FILE "01. Howard Shelley – Morceaux de Salon Op.10 -I- Nocturne in A minor.wav" WAVE
TRACK 01 AUDIO
TITLE "Morceaux de Salon Op.10 -I- Nocturne in A minor"
PERFORMER "Howard Shelley"
INDEX 01 00:00:00
FILE "02. Howard Shelley – Morceaux de Salon Op.10 -II- Valse in A.wav" WAVE
TRACK 02 AUDIO
TITLE "Morceaux de Salon Op.10 -II- Valse in A"
PERFORMER "Howard Shelley"
INDEX 01 00:00:00
FILE "03. Howard Shelley – Morceaux de Salon Op.10 -III- Barcarolle in G minor.wav" WAVE
TRACK 03 AUDIO
TITLE "Morceaux de Salon Op.10 -III- Barcarolle in G minor"
PERFORMER "Howard Shelley"
INDEX 01 00:00:00
FILE "04. Howard Shelley – Morceaux de Salon Op.10 -IV- Mйlodie in E minor.wav" WAVE
TRACK 04 AUDIO
TITLE "Morceaux de Salon Op.10 -IV- Mйlodie in E minor"
PERFORMER "Howard Shelley"
INDEX 01 00:00:00
FILE "05. Howard Shelley – Morceaux de Salon Op.10 -V- Humoresque in G.wav" WAVE
TRACK 05 AUDIO
TITLE "Morceaux de Salon Op.10 -V- Humoresque in G"
PERFORMER "Howard Shelley"
INDEX 01 00:00:00
FILE "06. Howard Shelley – Morceaux de Salon Op.10 - Romance in F minor.wav" WAVE
TRACK 06 AUDIO
TITLE "Morceaux de Salon Op.10 - Romance in F minor"
PERFORMER "Howard Shelley"
INDEX 01 00:00:00
FILE "07. Howard Shelley – Morceaux de Salon Op.10 - Mazurka in Db.wav" WAVE
TRACK 07 AUDIO
TITLE "Morceaux de Salon Op.10 - Mazurka in Db"
PERFORMER "Howard Shelley"
INDEX 01 00:00:00
FILE "08. Howard Shelley – Moments Musicaux Op.16 - Andantino in Bb minor.wav" WAVE
TRACK 08 AUDIO
TITLE "Moments Musicaux Op.16 - Andantino in Bb minor"
PERFORMER "Howard Shelley"
INDEX 01 00:00:00
FILE "09. Howard Shelley – Moments Musicaux Op.16 - Allegretto in Eb minor.wav" WAVE
TRACK 09 AUDIO
TITLE "Moments Musicaux Op.16 - Allegretto in Eb minor"
PERFORMER "Howard Shelley"
INDEX 01 00:00:00
FILE "10. Howard Shelley – Moments Musicaux Op.16 - Andante cantabile in B minor.wav" WAVE
TRACK 10 AUDIO
TITLE "Moments Musicaux Op.16 - Andante cantabile in B minor"
PERFORMER "Howard Shelley"
INDEX 01 00:00:00
FILE "11. Howard Shelley – Moments Musicaux Op.16 - Presto in E minor.wav" WAVE
TRACK 11 AUDIO
TITLE "Moments Musicaux Op.16 - Presto in E minor"
PERFORMER "Howard Shelley"
INDEX 01 00:00:00
FILE "12. Howard Shelley – Moments Musicaux Op.16 - Adagio sostenuto in Db minor.wav" WAVE
TRACK 12 AUDIO
TITLE "Moments Musicaux Op.16 - Adagio sostenuto in Db minor"
PERFORMER "Howard Shelley"
INDEX 01 00:00:00
FILE "13. Howard Shelley – Moments Musicaux Op.16 - Maestoso in C.wav" WAVE
TRACK 13 AUDIO
TITLE "Moments Musicaux Op.16 - Maestoso in C"
PERFORMER "Howard Shelley"
INDEX 01 00:00:00

CD 3 Early Piano Works

Piano Sonata No 2 in B flat minor, Op 36 original version
1 Movement 1: Allegro agitato [11'19]
2 Movement 2: Non allegro [7'36]
3 Movement 3: Allegro molto – Poco meno mosso – Presto [7'21]
4 Morceau de fantaisie in G minor [1'02]
5 Song without words [1'09]
6 Piиce in D minor [1'26]
7 Fughetta in F [2'05]
8 Fragments [2'12]
9 Oriental sketch [1'42]
Three Nocturnes
10 No 1: F sharp minor [4'35]
11 No 2: F major [2'44]
12 No 3: C minor [4'04]
Four pieces
13 No 1: Romance in F sharp minor [1'59]
14 No 2: Prelude in E flat minor [3'14]
15 No 3: Mйlodie in E major [3'20]
16 No 4: Gavotte in D major [3'36]

Log

Exact Audio Copy V0.99 prebeta 5 from 4. May 2009
EAC extraction logfile from 14. May 2010, 21:39
Shelley, Howard / Rachmaninov: The Early Piano Works
Used drive : Optiarc DVD RW AD-7241S Adapter: 5 ID: 0
Read mode : Secure
Utilize accurate stream : Yes
Defeat audio cache : Yes
Make use of C2 pointers : No
Read offset correction : 48
Overread into Lead-In and Lead-Out : No
Fill up missing offset samples with silence : Yes
Delete leading and trailing silent blocks : No
Null samples used in CRC calculations : Yes
Used interface : Native Win32 interface for Win NT & 2000
Gap handling : Appended to previous track
Used output format : User Defined Encoder
Selected bitrate : 768 kBit/s
Quality : High
Add ID3 tag : No
Command line compressor : C:\Program Files\Exact Audio Copy\Flac\flac.exe
Additional command line options : -8 -V -T "ARTIST=%a" -T "TITLE=%t" -T "ALBUM=%g" -T "DATE=%y" -T "TRACKNUMBER=%n" -T "GENRE=%m" -T "COMMENT=EAC FLAC -8" %s
TOC of the extracted CD
Track | Start | Length | Start sector | End sector
---------------------------------------------------------
1 | 0:00.00 | 11:19.07 | 0 | 50931
2 | 11:19.07 | 7:37.25 | 50932 | 85231
3 | 18:56.32 | 7:27.73 | 85232 | 118829
4 | 26:24.30 | 1:03.00 | 118830 | 123554
5 | 27:27.30 | 1:09.40 | 123555 | 128769
6 | 28:36.70 | 1:25.60 | 128770 | 135204
7 | 30:02.55 | 2:05.45 | 135205 | 144624
8 | 32:08.25 | 2:12.25 | 144625 | 154549
9 | 34:20.50 | 1:42.15 | 154550 | 162214
10 | 36:02.65 | 4:36.05 | 162215 | 182919
11 | 40:38.70 | 2:43.52 | 182920 | 195196
12 | 43:22.47 | 4:04.45 | 195197 | 213541
13 | 47:27.17 | 1:59.45 | 213542 | 222511
14 | 49:26.62 | 3:14.35 | 222512 | 237096
15 | 52:41.22 | 3:20.25 | 237097 | 252121
16 | 56:01.47 | 3:35.05 | 252122 | 268251
Track 1
Filename E:\Раздача\образы музыки на раздачу\SERGEY RACHMANINOV\3\01. Shelley, Howard – Piano Sonata in Bb minor- Allegro agitato.wav
Pre-gap length 0:00:02.00
Peak level 60.4 %
Track quality 100.0 %
Test CRC 2F80EB22
Copy CRC 2F80EB22
Cannot be verified as accurate (confidence 4) [B3C516DF], AccurateRip returned [7841B33B]
Copy OK
Track 2
Filename E:\Раздача\образы музыки на раздачу\SERGEY RACHMANINOV\3\02. Shelley, Howard – Piano Sonata in Bb minor- Non allegro.wav
Peak level 60.4 %
Track quality 100.0 %
Test CRC 6EEE1FFE
Copy CRC 6EEE1FFE
Cannot be verified as accurate (confidence 4) [1BD2FF24], AccurateRip returned [7E80E11F]
Copy OK
Track 3
Filename E:\Раздача\образы музыки на раздачу\SERGEY RACHMANINOV\3\03. Shelley, Howard – Piano Sonata in Bb minor- Allegro molto.wav
Peak level 76.0 %
Track quality 100.0 %
Test CRC 980906BA
Copy CRC 980906BA
Cannot be verified as accurate (confidence 4) [E6F86767], AccurateRip returned [C8F581FC]
Copy OK
Track 4
Filename E:\Раздача\образы музыки на раздачу\SERGEY RACHMANINOV\3\04. Shelley, Howard – Morceau de Fantasie in G minor.wav
Pre-gap length 0:00:04.30
Peak level 55.4 %
Track quality 100.0 %
Test CRC 80E5EB4D
Copy CRC 80E5EB4D
Cannot be verified as accurate (confidence 4) [9AF4562B], AccurateRip returned [4ACFF3E9]
Copy OK
Track 5
Filename E:\Раздача\образы музыки на раздачу\SERGEY RACHMANINOV\3\05. Shelley, Howard – Song Without Words.wav
Peak level 19.7 %
Track quality 100.0 %
Test CRC B075AA0A
Copy CRC B075AA0A
Cannot be verified as accurate (confidence 4) [A8F95CB9], AccurateRip returned [FCAECB5A]
Copy OK
Track 6
Filename E:\Раздача\образы музыки на раздачу\SERGEY RACHMANINOV\3\06. Shelley, Howard – Piиce in D minor.wav
Peak level 45.2 %
Track quality 100.0 %
Test CRC A2E89347
Copy CRC A2E89347
Cannot be verified as accurate (confidence 4) [51428287], AccurateRip returned [046B8C10]
Copy OK
Track 7
Filename E:\Раздача\образы музыки на раздачу\SERGEY RACHMANINOV\3\07. Shelley, Howard – Fughetta in F.wav
Peak level 25.0 %
Track quality 100.0 %
Test CRC 99911750
Copy CRC 99911750
Cannot be verified as accurate (confidence 4) [31BF741D], AccurateRip returned [1D03B703]
Copy OK
Track 8
Filename E:\Раздача\образы музыки на раздачу\SERGEY RACHMANINOV\3\08. Shelley, Howard – Fragments.wav
Peak level 26.0 %
Track quality 100.0 %
Test CRC 704EE098
Copy CRC 704EE098
Cannot be verified as accurate (confidence 4) [EE38D097], AccurateRip returned [33388E76]
Copy OK
Track 9
Filename E:\Раздача\образы музыки на раздачу\SERGEY RACHMANINOV\3\09. Shelley, Howard – Oriental Sketch.wav
Peak level 73.2 %
Track quality 100.0 %
Test CRC 243E9E9F
Copy CRC 243E9E9F
Cannot be verified as accurate (confidence 4) [58A39BAF], AccurateRip returned [1A645EBD]
Copy OK
Track 10
Filename E:\Раздача\образы музыки на раздачу\SERGEY RACHMANINOV\3\10. Shelley, Howard – Three Nocturnes- No. 1 in F# minor.wav
Peak level 57.5 %
Track quality 100.0 %
Test CRC 0CDB01AD
Copy CRC 0CDB01AD
Cannot be verified as accurate (confidence 4) [51A53E86], AccurateRip returned [28410DBE]
Copy OK
Track 11
Filename E:\Раздача\образы музыки на раздачу\SERGEY RACHMANINOV\3\11. Shelley, Howard – Three Nocturnes- No. 2 in F major.wav
Peak level 35.7 %
Track quality 99.9 %
Test CRC AA2648AB
Copy CRC AA2648AB
Cannot be verified as accurate (confidence 4) [B0432BDE], AccurateRip returned [79E27930]
Copy OK
Track 12
Filename E:\Раздача\образы музыки на раздачу\SERGEY RACHMANINOV\3\12. Shelley, Howard – Three Nocturnes- No. 3 in C minor.wav
Peak level 50.5 %
Track quality 100.0 %
Test CRC 3C2FC78B
Copy CRC 3C2FC78B
Cannot be verified as accurate (confidence 4) [9C3581B5], AccurateRip returned [5CD285F6]
Copy OK
Track 13
Filename E:\Раздача\образы музыки на раздачу\SERGEY RACHMANINOV\3\13. Shelley, Howard – Four Pieces- Romance in F# minor.wav
Peak level 43.8 %
Track quality 100.0 %
Test CRC F856D074
Copy CRC F856D074
Cannot be verified as accurate (confidence 4) [DFA85644], AccurateRip returned [4A3290E1]
Copy OK
Track 14
Filename E:\Раздача\образы музыки на раздачу\SERGEY RACHMANINOV\3\14. Shelley, Howard – Four Pieces- Prelude in Eb minor.wav
Peak level 30.7 %
Track quality 100.0 %
Test CRC 149DD5EC
Copy CRC 149DD5EC
Cannot be verified as accurate (confidence 4) [487C0A5D], AccurateRip returned [AD43E3DC]
Copy OK
Track 15
Filename E:\Раздача\образы музыки на раздачу\SERGEY RACHMANINOV\3\15. Shelley, Howard – Four Pieces- Mйlodie in E.wav
Peak level 28.0 %
Track quality 100.0 %
Test CRC 7C3049BE
Copy CRC 7C3049BE
Cannot be verified as accurate (confidence 4) [A3A07064], AccurateRip returned [4BACA42E]
Copy OK
Track 16
Filename E:\Раздача\образы музыки на раздачу\SERGEY RACHMANINOV\3\16. Shelley, Howard – Four Pieces- Gavotte in D.wav
Peak level 78.4 %
Track quality 100.0 %
Test CRC BB1FB592
Copy CRC BB1FB592
Cannot be verified as accurate (confidence 4) [3D36CFD3], AccurateRip returned [4F18F81C]
Copy OK
No tracks could be verified as accurate
You may have a different pressing from the one(s) in the database
No errors occurred
End of status report

Cue

REM GENRE Classical
REM DATE 1985
REM DISCID EA0DF810
REM COMMENT "ExactAudioCopy v0.99pb5"
PERFORMER "Shelley, Howard"
TITLE "Rachmaninov: The Early Piano Works"
FILE "01. Shelley, Howard – Piano Sonata in Bb minor- Allegro agitato.wav" WAVE
TRACK 01 AUDIO
TITLE "Piano Sonata in Bb minor: Allegro agitato"
PERFORMER "Shelley, Howard"
INDEX 01 00:00:00
FILE "02. Shelley, Howard – Piano Sonata in Bb minor- Non allegro.wav" WAVE
TRACK 02 AUDIO
TITLE "Piano Sonata in Bb minor: Non allegro"
PERFORMER "Shelley, Howard"
INDEX 01 00:00:00
FILE "03. Shelley, Howard – Piano Sonata in Bb minor- Allegro molto.wav" WAVE
TRACK 03 AUDIO
TITLE "Piano Sonata in Bb minor: Allegro molto"
PERFORMER "Shelley, Howard"
INDEX 01 00:00:00
TRACK 04 AUDIO
TITLE "Morceau de Fantasie in G minor"
PERFORMER "Shelley, Howard"
INDEX 00 07:23:50
FILE "04. Shelley, Howard – Morceau de Fantasie in G minor.wav" WAVE
INDEX 01 00:00:00
FILE "05. Shelley, Howard – Song Without Words.wav" WAVE
TRACK 05 AUDIO
TITLE "Song Without Words"
PERFORMER "Shelley, Howard"
INDEX 01 00:00:00
FILE "06. Shelley, Howard – Piиce in D minor.wav" WAVE
TRACK 06 AUDIO
TITLE "Piиce in D minor"
PERFORMER "Shelley, Howard"
INDEX 01 00:00:00
FILE "07. Shelley, Howard – Fughetta in F.wav" WAVE
TRACK 07 AUDIO
TITLE "Fughetta in F"
PERFORMER "Shelley, Howard"
INDEX 01 00:00:00
FILE "08. Shelley, Howard – Fragments.wav" WAVE
TRACK 08 AUDIO
TITLE "Fragments"
PERFORMER "Shelley, Howard"
INDEX 01 00:00:00
FILE "09. Shelley, Howard – Oriental Sketch.wav" WAVE
TRACK 09 AUDIO
TITLE "Oriental Sketch"
PERFORMER "Shelley, Howard"
INDEX 01 00:00:00
FILE "10. Shelley, Howard – Three Nocturnes- No. 1 in F# minor.wav" WAVE
TRACK 10 AUDIO
TITLE "Three Nocturnes: No. 1 in F# minor"
PERFORMER "Shelley, Howard"
INDEX 01 00:00:00
FILE "11. Shelley, Howard – Three Nocturnes- No. 2 in F major.wav" WAVE
TRACK 11 AUDIO
TITLE "Three Nocturnes: No. 2 in F major"
PERFORMER "Shelley, Howard"
INDEX 01 00:00:00
FILE "12. Shelley, Howard – Three Nocturnes- No. 3 in C minor.wav" WAVE
TRACK 12 AUDIO
TITLE "Three Nocturnes: No. 3 in C minor"
PERFORMER "Shelley, Howard"
INDEX 01 00:00:00
FILE "13. Shelley, Howard – Four Pieces- Romance in F# minor.wav" WAVE
TRACK 13 AUDIO
TITLE "Four Pieces: Romance in F# minor"
PERFORMER "Shelley, Howard"
INDEX 01 00:00:00
FILE "14. Shelley, Howard – Four Pieces- Prelude in Eb minor.wav" WAVE
TRACK 14 AUDIO
TITLE "Four Pieces: Prelude in Eb minor"
PERFORMER "Shelley, Howard"
INDEX 01 00:00:00
FILE "15. Shelley, Howard – Four Pieces- Mйlodie in E.wav" WAVE
TRACK 15 AUDIO
TITLE "Four Pieces: Mйlodie in E"
PERFORMER "Shelley, Howard"
INDEX 01 00:00:00
FILE "16. Shelley, Howard – Four Pieces- Gavotte in D.wav" WAVE
TRACK 16 AUDIO
TITLE "Four Pieces: Gavotte in D"
PERFORMER "Shelley, Howard"
INDEX 01 00:00:00

CD 4 Preludes, Op 32

Preludes, Op 32
1 No 01: C major [1'18]
2 No 02: B flat minor [2'57]
3 No 03: E major [2'31]
4 No 04: E minor [5'55]
5 No 05: G major [3'04]
6 No 06: F minor [1'26]
7 No 07: F major [2'54]
8 No 08: A minor [1'49]
9 No 09: A major [3'06]
10 No 10: B minor [6'06]
11 No 11: B major [2'35]
12 No 12: G sharp minor [2'37]
13 No 13: D flat major [5'18]
14 Prelude in F major [2'52]
15 Prelude in D minor, Op posth. [2'34]

Log

Exact Audio Copy V0.99 prebeta 5 from 4. May 2009
EAC extraction logfile from 14. May 2010, 22:14
Rachmaninov_Shelley / Rachmaninov_13 Preludes, Prelude in F major, Prelude in D minor
Used drive : Optiarc DVD RW AD-7241S Adapter: 5 ID: 0
Read mode : Secure
Utilize accurate stream : Yes
Defeat audio cache : Yes
Make use of C2 pointers : No
Read offset correction : 48
Overread into Lead-In and Lead-Out : No
Fill up missing offset samples with silence : Yes
Delete leading and trailing silent blocks : No
Null samples used in CRC calculations : Yes
Used interface : Native Win32 interface for Win NT & 2000
Gap handling : Appended to previous track
Used output format : User Defined Encoder
Selected bitrate : 768 kBit/s
Quality : High
Add ID3 tag : No
Command line compressor : C:\Program Files\Exact Audio Copy\Flac\flac.exe
Additional command line options : -8 -V -T "ARTIST=%a" -T "TITLE=%t" -T "ALBUM=%g" -T "DATE=%y" -T "TRACKNUMBER=%n" -T "GENRE=%m" -T "COMMENT=EAC FLAC -8" %s
TOC of the extracted CD
Track | Start | Length | Start sector | End sector
---------------------------------------------------------
1 | 0:00.32 | 1:20.70 | 32 | 6101
2 | 1:21.27 | 3:02.40 | 6102 | 19791
3 | 4:23.67 | 2:35.50 | 19792 | 31466
4 | 6:59.42 | 5:59.20 | 31467 | 58411
5 | 12:58.62 | 3:07.45 | 58412 | 72481
6 | 16:06.32 | 1:29.30 | 72482 | 79186
7 | 17:35.62 | 2:57.03 | 79187 | 92464
8 | 20:32.65 | 1:53.27 | 92465 | 100966
9 | 22:26.17 | 3:11.25 | 100967 | 115316
10 | 25:37.42 | 6:07.35 | 115317 | 142876
11 | 31:45.02 | 2:40.55 | 142877 | 154931
12 | 34:25.57 | 2:43.30 | 154932 | 167186
13 | 37:09.12 | 5:25.43 | 167187 | 191604
14 | 42:34.55 | 2:59.67 | 191605 | 205096
15 | 45:34.47 | 2:38.73 | 205097 | 217019
Track 1
Filename E:\Раздача\образы музыки на раздачу\SERGEY RACHMANINOV\4\01. Rachmaninov_Shelley – 13 Preludes Op.32 No.1 in C- Allegro vivace.wav
Pre-gap length 0:00:02.42
Peak level 91.0 %
Track quality 100.0 %
Test CRC 17B1D7A2
Copy CRC 17B1D7A2
Cannot be verified as accurate (confidence 3) [4DA78D75], AccurateRip returned [0D15B09B]
Copy OK
Track 2
Filename E:\Раздача\образы музыки на раздачу\SERGEY RACHMANINOV\4\02. Rachmaninov_Shelley – 13 Preludes Op.32 No.2 in Bb minor- Allegretto.wav
Peak level 57.0 %
Track quality 100.0 %
Test CRC 8510F4E2
Copy CRC 8510F4E2
Cannot be verified as accurate (confidence 3) [65137E9A], AccurateRip returned [6A2F64C6]
Copy OK
Track 3
Filename E:\Раздача\образы музыки на раздачу\SERGEY RACHMANINOV\4\03. Rachmaninov_Shelley – 13 Preludes Op.32 No.3 in E- Allegro vivace.wav
Peak level 96.7 %
Track quality 100.0 %
Test CRC EEA61625
Copy CRC EEA61625
Cannot be verified as accurate (confidence 3) [762DA263], AccurateRip returned [5219ABDF]
Copy OK
Track 4
Filename E:\Раздача\образы музыки на раздачу\SERGEY RACHMANINOV\4\04. Rachmaninov_Shelley – 13 Preludes Op.32 No.4 in E minor- Allegro con brio.wav
Peak level 71.9 %
Track quality 99.9 %
Test CRC A3F77993
Copy CRC A3F77993
Cannot be verified as accurate (confidence 3) [B0D34C6A], AccurateRip returned [356965F4]
Copy OK
Track 5
Filename E:\Раздача\образы музыки на раздачу\SERGEY RACHMANINOV\4\05. Rachmaninov_Shelley – 13 Preludes Op.32 No.5 in G- Moderato.wav
Peak level 33.3 %
Track quality 99.9 %
Test CRC 217644D0
Copy CRC 217644D0
Cannot be verified as accurate (confidence 3) [2D21DE65], AccurateRip returned [35E87710]
Copy OK
Track 6
Filename E:\Раздача\образы музыки на раздачу\SERGEY RACHMANINOV\4\06. Rachmaninov_Shelley – 13 Preludes Op.32 No.6 in F minor- Allegro appassionato.wav
Peak level 79.0 %
Track quality 100.0 %
Test CRC C82DCF92
Copy CRC C82DCF92
Cannot be verified as accurate (confidence 3) [702EA335], AccurateRip returned [81559445]
Copy OK
Track 7
Filename E:\Раздача\образы музыки на раздачу\SERGEY RACHMANINOV\4\07. Rachmaninov_Shelley – 13 Preludes Op.32 No.7 in F- Moderato.wav
Peak level 56.8 %
Track quality 100.0 %
Test CRC 5AE9CDF4
Copy CRC 5AE9CDF4
Cannot be verified as accurate (confidence 3) [01AE7F99], AccurateRip returned [21BCD5FF]
Copy OK
Track 8
Filename E:\Раздача\образы музыки на раздачу\SERGEY RACHMANINOV\4\08. Rachmaninov_Shelley – 13 Preludes Op.32 No.8 in A minor- Vivo.wav
Peak level 88.1 %
Track quality 100.0 %
Test CRC 6B05C0BA
Copy CRC 6B05C0BA
Cannot be verified as accurate (confidence 3) [E61962DA], AccurateRip returned [CC77D436]
Copy OK
Track 9
Filename E:\Раздача\образы музыки на раздачу\SERGEY RACHMANINOV\4\09. Rachmaninov_Shelley – 13 Preludes Op.32 No.9 in A- Moderato.wav
Peak level 68.7 %
Track quality 100.0 %
Test CRC 6C34E342
Copy CRC 6C34E342
Cannot be verified as accurate (confidence 3) [81ECD5B4], AccurateRip returned [A2C02417]
Copy OK
Track 10
Filename E:\Раздача\образы музыки на раздачу\SERGEY RACHMANINOV\4\10. Rachmaninov_Shelley – 13 Preludes Op.32 No.10 in B minor- Lento.wav
Peak level 80.5 %
Track quality 100.0 %
Test CRC 37653FFC
Copy CRC 37653FFC
Cannot be verified as accurate (confidence 3) [C07AC561], AccurateRip returned [A194B79A]
Copy OK
Track 11
Filename E:\Раздача\образы музыки на раздачу\SERGEY RACHMANINOV\4\11. Rachmaninov_Shelley – 13 Preludes Op.32 No.11 in B- Allegretto.wav
Peak level 31.9 %
Track quality 99.9 %
Test CRC 31B2D23C
Copy CRC 31B2D23C
Cannot be verified as accurate (confidence 3) [20393388], AccurateRip returned [9B0AC51E]
Copy OK
Track 12
Filename E:\Раздача\образы музыки на раздачу\SERGEY RACHMANINOV\4\12. Rachmaninov_Shelley – 13 Preludes Op.32 No.12 in G# minor- Allegro.wav
Peak level 59.4 %
Track quality 100.0 %
Test CRC 72E7B373
Copy CRC 72E7B373
Cannot be verified as accurate (confidence 3) [25F61C82], AccurateRip returned [80B0CF43]
Copy OK
Track 13
Filename E:\Раздача\образы музыки на раздачу\SERGEY RACHMANINOV\4\13. Rachmaninov_Shelley – 13 Preludes Op.32 No.13 in Db- Grave.wav
Peak level 93.0 %
Track quality 100.0 %
Test CRC FD40F6BA
Copy CRC FD40F6BA
Cannot be verified as accurate (confidence 3) [B8691F01], AccurateRip returned [0B185B0F]
Copy OK
Track 14
Filename E:\Раздача\образы музыки на раздачу\SERGEY RACHMANINOV\4\14. Rachmaninov_Shelley – Prelude in F major (1891).wav
Pre-gap length 0:00:00.60
Peak level 67.1 %
Track quality 100.0 %
Test CRC 6F68A0DA
Copy CRC 6F68A0DA
Cannot be verified as accurate (confidence 3) [206B1AF4], AccurateRip returned [5FDEB775]
Copy OK
Track 15
Filename E:\Раздача\образы музыки на раздачу\SERGEY RACHMANINOV\4\15. Rachmaninov_Shelley – Prelude in D minor (Op.post. 1917).wav
Pre-gap length 0:00:01.66
Peak level 83.6 %
Track quality 100.0 %
Test CRC 4CBAA81F
Copy CRC 4CBAA81F
Cannot be verified as accurate (confidence 3) [8B634CBF], AccurateRip returned [B92392AD]
Copy OK
No tracks could be verified as accurate
You may have a different pressing from the one(s) in the database
No errors occurred
End of status report

Cue

REM GENRE "Piano Solo"
REM DATE 1983
REM DISCID CC0B4D0F
REM COMMENT "ExactAudioCopy v0.99pb5"
PERFORMER "Rachmaninov_Shelley"
TITLE "Rachmaninov_13 Preludes, Prelude in F major, Prelude in D minor"
FILE "01. Rachmaninov_Shelley – 13 Preludes Op.32 No.1 in C- Allegro vivace.wav" WAVE
TRACK 01 AUDIO
TITLE "13 Preludes Op.32 No.1 in C: Allegro vivace"
PERFORMER "Rachmaninov_Shelley"
PREGAP 00:00:32
INDEX 01 00:00:00
FILE "02. Rachmaninov_Shelley – 13 Preludes Op.32 No.2 in Bb minor- Allegretto.wav" WAVE
TRACK 02 AUDIO
TITLE "13 Preludes Op.32 No.2 in Bb minor: Allegretto"
PERFORMER "Rachmaninov_Shelley"
INDEX 01 00:00:00
FILE "03. Rachmaninov_Shelley – 13 Preludes Op.32 No.3 in E- Allegro vivace.wav" WAVE
TRACK 03 AUDIO
TITLE "13 Preludes Op.32 No.3 in E: Allegro vivace"
PERFORMER "Rachmaninov_Shelley"
INDEX 01 00:00:00
FILE "04. Rachmaninov_Shelley – 13 Preludes Op.32 No.4 in E minor- Allegro con brio.wav" WAVE
TRACK 04 AUDIO
TITLE "13 Preludes Op.32 No.4 in E minor: Allegro con brio"
PERFORMER "Rachmaninov_Shelley"
INDEX 01 00:00:00
FILE "05. Rachmaninov_Shelley – 13 Preludes Op.32 No.5 in G- Moderato.wav" WAVE
TRACK 05 AUDIO
TITLE "13 Preludes Op.32 No.5 in G: Moderato"
PERFORMER "Rachmaninov_Shelley"
INDEX 01 00:00:00
FILE "06. Rachmaninov_Shelley – 13 Preludes Op.32 No.6 in F minor- Allegro appassionato.wav" WAVE
TRACK 06 AUDIO
TITLE "13 Preludes Op.32 No.6 in F minor: Allegro appassionato"
PERFORMER "Rachmaninov_Shelley"
INDEX 01 00:00:00
FILE "07. Rachmaninov_Shelley – 13 Preludes Op.32 No.7 in F- Moderato.wav" WAVE
TRACK 07 AUDIO
TITLE "13 Preludes Op.32 No.7 in F: Moderato"
PERFORMER "Rachmaninov_Shelley"
INDEX 01 00:00:00
FILE "08. Rachmaninov_Shelley – 13 Preludes Op.32 No.8 in A minor- Vivo.wav" WAVE
TRACK 08 AUDIO
TITLE "13 Preludes Op.32 No.8 in A minor: Vivo"
PERFORMER "Rachmaninov_Shelley"
INDEX 01 00:00:00
FILE "09. Rachmaninov_Shelley – 13 Preludes Op.32 No.9 in A- Moderato.wav" WAVE
TRACK 09 AUDIO
TITLE "13 Preludes Op.32 No.9 in A: Moderato"
PERFORMER "Rachmaninov_Shelley"
INDEX 01 00:00:00
FILE "10. Rachmaninov_Shelley – 13 Preludes Op.32 No.10 in B minor- Lento.wav" WAVE
TRACK 10 AUDIO
TITLE "13 Preludes Op.32 No.10 in B minor: Lento"
PERFORMER "Rachmaninov_Shelley"
INDEX 01 00:00:00
FILE "11. Rachmaninov_Shelley – 13 Preludes Op.32 No.11 in B- Allegretto.wav" WAVE
TRACK 11 AUDIO
TITLE "13 Preludes Op.32 No.11 in B: Allegretto"
PERFORMER "Rachmaninov_Shelley"
INDEX 01 00:00:00
FILE "12. Rachmaninov_Shelley – 13 Preludes Op.32 No.12 in G# minor- Allegro.wav" WAVE
TRACK 12 AUDIO
TITLE "13 Preludes Op.32 No.12 in G# minor: Allegro"
PERFORMER "Rachmaninov_Shelley"
INDEX 01 00:00:00
FILE "13. Rachmaninov_Shelley – 13 Preludes Op.32 No.13 in Db- Grave.wav" WAVE
TRACK 13 AUDIO
TITLE "13 Preludes Op.32 No.13 in Db: Grave"
PERFORMER "Rachmaninov_Shelley"
INDEX 01 00:00:00
TRACK 14 AUDIO
TITLE "Prelude in F major (1891)"
PERFORMER "Rachmaninov_Shelley"
INDEX 00 05:24:73
FILE "14. Rachmaninov_Shelley – Prelude in F major (1891).wav" WAVE
INDEX 01 00:00:00
TRACK 15 AUDIO
TITLE "Prelude in D minor (Op.post. 1917)"
PERFORMER "Rachmaninov_Shelley"
INDEX 00 02:58:17
FILE "15. Rachmaninov_Shelley – Prelude in D minor (Op.post. 1917).wav" WAVE
INDEX 01 00:00:00

CD 5 Études-tableaux

Йtudes-tableaux, Op 33
1 No 1: F minor [2'26]
2 No 2: C major [2'15]
3 No 3. Op posth: C minor [4'24]
4 No 5. Op posth: D minor [2'30]
5 No 6: E flat minor [1'32]
6 No 7: E flat major [1'38]
7 No 8: G minor [3'38]
8 No 9: C sharp minor [2'40]
Йtudes-tableaux, Op 39
9 No 1: C minor [2'56]
10 No 2: A minor [5'38]
11 No 3: F sharp minor [3'
Скачать

Скачать торрент!

Как скачивать? · Что такое торрент? · Рейтинг и ограничения

Сайт не распространяет и не хранит электронные версии произведений, а лишь предоставляет доступ к создаваемому пользователями каталогу ссылок на торрент-файлы, которые содержат только списки хеш-сумм

загрузка...
[Профиль] [ЛС]
Показать сообщения:    
Ответить на тему

Текущее время: Сегодня 11:05

Часовой пояс: GMT + 4



Вы не можете начинать темы
Вы не можете отвечать на сообщения
Вы не можете редактировать свои сообщения
Вы не можете удалять свои сообщения
Вы не можете голосовать в опросах
Вы не можете прикреплять файлы к сообщениям
Вы не можете скачивать файлы