(piano duet) Рахманинов. Сюиты для двух фортепиано №1 и №2, Симфонические танцы - 2005, FLAC (image+.cue) lossless

Ответить на тему
 
Автор Сообщение

admin ®

Пол:

Стаж: 6 лет 11 месяцев

Сообщений: 735

Пост Пост: #1 от 17-Авг-2011 13:21

[Цитировать]

Рахманинов. Сюиты для двух фортепиано №1 и №2, Симфонические танцы
Исполнители:
Howard Shelley, Hilary Macnamara
Жанр: piano duet
Страна-производитель диска: Великобритания
Год издания диска: 2005
Издатель (лейбл): Helios
Дата записи: 1989
Аудиокодек: FLAC
Тип рипа: image+.cue
Битрейт аудио: lossless
Продолжительность: 77:21
Источник: собственный рип
Наличие сканов в содержимом раздачи: да

Треклист

1. Fantaisie-tableaux (Suite No.1), Op.5. I. Barcarolle (7:25)
2. II. La nuit... L'amour (6:21)
3. III. Les larmes (5:18)
4. IV. Paques (3:03)
5. Suite No.2, Op.17. I. Introduction (Alla marcia) (4:10)
6. II. Valse (Presto) (6:15)
7. III. Romance (Andantino) (6:31)
8. IV. Tarantelle (Presto) (6:02)
9. Symphonic Dances, Op.45. I. Non allegro. Lento. Tempo I (10:42)
10. II. Andante con moto (Tempo di valse) (8:23)
11. III. Lento assai. Allegro vivace

Лог создания рипа

Exact Audio Copy V0.99 prebeta 4 from 23. January 2008
EAC extraction logfile from 2. April 2011, 10:01
Howard Shelley, Hilary Macnamara (pianos) / Rachmaninov. Suites for Two Pianos & Symphonic Dances
Used drive : ASUS DRW-2014L1T Adapter: 2 ID: 0
Read mode : SecureUtilize accurate stream : YesDefeat audio cache : YesMake use of C2 pointers : No
Read offset correction : 6Overread into Lead-In and Lead-Out : NoFill up missing offset samples with silence : YesDelete leading and trailing silent blocks : NoNull samples used in CRC calculations : YesUsed interface : Installed external ASPI interface
Used output format : User Defined EncoderSelected bitrate : 128 kBit/sQuality : HighAdd ID3 tag : NoCommand line compressor : C:\Program Files\Exact Audio Copy\Flac\flac.exeAdditional command line options : -8 -V -T "ARTIST=%a" -T "TITLE=%t" -T "ALBUM=%g" -T "DATE=%y" -T "TRACKNUMBER=%n" -T "GENRE=%m" -T "COMMENT=EAC FLAC -8" %s
TOC of the extracted CD
Track | Start | Length | Start sector | End sector --------------------------------------------------------- 1 | 0:00.00 | 7:30.60 | 0 | 33809 2 | 7:30.60 | 6:27.13 | 33810 | 62847 3 | 13:57.73 | 5:17.12 | 62848 | 86634 4 | 19:15.10 | 3:14.33 | 86635 | 101217 5 | 22:29.43 | 4:10.70 | 101218 | 120037 6 | 26:40.38 | 6:19.67 | 120038 | 148529 7 | 33:00.30 | 6:30.58 | 148530 | 177837 8 | 39:31.13 | 6:11.00 | 177838 | 205662 9 | 45:42.13 | 10:47.00 | 205663 | 254187 10 | 56:29.13 | 8:26.05 | 254188 | 292142 11 | 64:55.18 | 12:26.47 | 292143 | 348139
Range status and errors
Selected range
Filename \\192.168.1.10\public\AUDIO\!!By Composer\Rachmaninov. Suites for Two Pianos & Symphonic Dances (Shelley, Macnamara)\Howard Shelley, Hilary Macnamara (pianos) - Rachmaninov. Suites for Two Pianos & Symphonic Dances.wav
Peak level 100.0 % Range quality 100.0 % Copy CRC AD913C92 Copy OK
No errors occurred
AccurateRip summary
Track 1 cannot be verified as accurate (confidence 6) [ADC03928], AccurateRip returned [8E7700C1]Track 2 cannot be verified as accurate (confidence 6) [D96727F3], AccurateRip returned [154E9DBB]Track 3 cannot be verified as accurate (confidence 6) [ABAB122E], AccurateRip returned [5A4682A6]Track 4 cannot be verified as accurate (confidence 6) [A392FD8F], AccurateRip returned [9264A1F2]Track 5 cannot be verified as accurate (confidence 6) [D88162D9], AccurateRip returned [F86B5F76]Track 6 cannot be verified as accurate (confidence 6) [80CB4AE3], AccurateRip returned [65B8DBA0]Track 7 cannot be verified as accurate (confidence 6) [C8537919], AccurateRip returned [93BE0AA8]Track 8 cannot be verified as accurate (confidence 6) [3B0F4E53], AccurateRip returned [1918C902]Track 9 cannot be verified as accurate (confidence 6) [ED73E04A], AccurateRip returned [493844FB]Track 10 cannot be verified as accurate (confidence 5) [96B1472C], AccurateRip returned [D60E66D1]Track 11 cannot be verified as accurate (confidence 6) [6AFC73EE], AccurateRip returned [97CD0488]
No tracks could be verified as accurateYou may have a different pressing from the one(s) in the database
End of status report

Содержание индексной карты (.CUE)

REM GENRE ClassicalREM DATE 2005REM DISCID A112210BREM COMMENT "ExactAudioCopy v0.99pb4"PERFORMER "Howard Shelley, Hilary Macnamara (pianos)"TITLE "Rachmaninov. Suites for Two Pianos & Symphonic Dances"FILE "Howard Shelley, Hilary Macnamara (pianos) - Rachmaninov. Suites for Two Pianos & Symphonic Dances.flac" WAVE TRACK 01 AUDIO TITLE "Fantaisie-tableaux (Suite No.1), Op.5. I. Barcarolle" PERFORMER "Howard Shelley, Hilary Macnamara (pianos)" INDEX 01 00:00:00 TRACK 02 AUDIO TITLE "II. La nuit... L'amour" PERFORMER "Howard Shelley, Hilary Macnamara (pianos)" INDEX 00 07:25:63 INDEX 01 07:30:60 TRACK 03 AUDIO TITLE "III. Les larmes" PERFORMER "Howard Shelley, Hilary Macnamara (pianos)" INDEX 00 13:51:38 INDEX 01 13:57:73 TRACK 04 AUDIO TITLE "IV. Paques" PERFORMER "Howard Shelley, Hilary Macnamara (pianos)" INDEX 01 19:15:10 TRACK 05 AUDIO TITLE "Suite No.2, Op.17. I. Introduction (Alla marcia)" PERFORMER "Howard Shelley, Hilary Macnamara (pianos)" INDEX 00 22:18:73 INDEX 01 22:29:43 TRACK 06 AUDIO TITLE "II. Valse (Presto)" PERFORMER "Howard Shelley, Hilary Macnamara (pianos)" INDEX 00 26:39:38 INDEX 01 26:40:38 TRACK 07 AUDIO TITLE "III. Romance (Andantino)" PERFORMER "Howard Shelley, Hilary Macnamara (pianos)" INDEX 00 32:55:35 INDEX 01 33:00:30 TRACK 08 AUDIO TITLE "IV. Tarantelle (Presto)" PERFORMER "Howard Shelley, Hilary Macnamara (pianos)" INDEX 01 39:31:13 TRACK 09 AUDIO TITLE "Symphonic Dances, Op.45. I. Non allegro. Lento. Tempo I" PERFORMER "Howard Shelley, Hilary Macnamara (pianos)" INDEX 00 45:33:05 INDEX 01 45:42:13 TRACK 10 AUDIO TITLE "II. Andante con moto (Tempo di valse)" PERFORMER "Howard Shelley, Hilary Macnamara (pianos)" INDEX 00 56:24:48 INDEX 01 56:29:13 TRACK 11 AUDIO TITLE "III. Lento assai. Allegro vivace" PERFORMER "Howard Shelley, Hilary Macnamara (pianos)" INDEX 00 64:52:68 INDEX 01 64:55:18
Скачать

Скачать торрент!

Как скачивать? · Что такое торрент? · Рейтинг и ограничения

Сайт не распространяет и не хранит электронные версии произведений, а лишь предоставляет доступ к создаваемому пользователями каталогу ссылок на торрент-файлы, которые содержат только списки хеш-сумм

загрузка...
[Профиль] [ЛС]
Показать сообщения:    
Ответить на тему

Текущее время: Сегодня 12:36

Часовой пояс: GMT + 4



Вы не можете начинать темы
Вы не можете отвечать на сообщения
Вы не можете редактировать свои сообщения
Вы не можете удалять свои сообщения
Вы не можете голосовать в опросах
Вы не можете прикреплять файлы к сообщениям
Вы не можете скачивать файлы