Восстание планеты обезьян / Rise of the Planet of the Apes (Руперт Уайатт / Rupert Wyatt) [2011, США, фантастика, боевик, триллер, драма, TS-proper] DUB

Ответить на тему
 
Автор Сообщение

user ®

Стаж: 7 лет 7 месяцев

Сообщений: 20008

Пост Пост: #1 от 08-Авг-2011 11:25

[Цитировать]

Восстание планеты обезьян / Rise of the Planet of the Apes
Страна: США
Жанр: фантастика, боевик, триллер, драма
Год выпуска: 2011
Продолжительность: 01:37:58
Перевод: Профессиональный (дублированный)
Cубтитры: нет
Режиссер: Руперт Уайатт / Rupert Wyatt
В ролях: Джеймс Франко, Фрида Пинто, Джон Литгоу, Брайан Кокс, Том Фелтон, Дэвид Ойелоуо, Тайлер Лэбин, Джэми Харрис, Дэвид Хьюлетт, Ти Олссон и др.
Описание: Действие фильма происходит в современном Сан-Франциско и строится вокруг ученого, генетические эксперименты которого привели к возникновению высокоразвитого интеллекта у обезьян. Приматы, осознав свое подчиненное положение, поднимают восстание и лишают человека звания царя
Качество видео: TS-proper
Формат видео: AVI
Видео: 720x320 (2.25:1), 25 fps, DivX Codec 5.x or 6.x ~1860 kbps avg, 0.32 bit/pixel
Аудио: 48 kHz, AC3 Dolby Digital, 2/0 (L,R) ch, ~128.00 kbps avg

Рецензия с Кинопоиска

Итак, сегодня состоялась премьера нового фильма, на который я не мог не пойти. Трейлер этого фильма очень часто показывали перед другими сеансами, пытаясь заинтересовать зрителя знакомым названием. Думаю, слова «планета обезьян», написанные в англоязычном варианте заглавными буквами, говорят о многом.
Попытаюсь без спойлеров поделиться впечатлениями от просмотра данного фильма. Некоторые фрагменты сюжета были использованы в захватывающем трейлере и, судя по всему, в фильме предполагалось значительное использование компьютерной графики, весьма похожей на реальность. Я бы добавил, на пугающую реальность.
И дело вот в чем. Фильм затрагивает философские аспекты касаемо символического звания человека «венца природы». Ведь не секрет, что в последнее время человечество весьма хищнически пользуется природными богатствами в своих целях и исключительно для своего блага — добывает и перерабатывает нефть и другие полезные ископаемые, вырубает леса, являющиеся местом жительства наших соседей по планете, занимается ловлей и зачастую истреблением целых видов представителей флоры и фауны. Если рассмотреть время жительства на нашей планете человечества вкупе с нанесенным им ущербом, то откроется поистине шокирующая картина. Десятки и сотни миллионов лет на Земле жили и господствовали, сменяя друг друга, различные животные, но никогда прежде планете не наносилось столько вреда, как после совершения научно-технических революций человеком менее чем за сотню лет. Который сам себе дал звание «венца природы». Да, в настоящее время это так, но может ли произойти передача этого звания более совершенной форме жизни?.. Фильм отвечает на этот вопрос и задает много других вопросов.
Отчасти данный фильм мне напомнил «Химеру» (2010 г.), где точно так же группа ученых создает более совершенную форму жизни, которая через время справедливо задумалась о превалировании над своими создателями. Но если «химера» была одна и вскоре бы вымерла, то здесь имеется множество главных героев, превосходящих по интеллекту самых лучших ученых и имеющих прямую возможность генетической передачи интеллекта своему потомству. Что, в свою очередь, гипотетически может привести к замещению одного превалирующего вида другим, как в свое время неоантропы (Homo sapiens) вытеснили неандертальцев, полностью их истребив, обладая более совершенными анатомическими и физиологическими модификациями, несмотря на преобладание физической силы последних.
Фильм является достаточно динамичным, там нет такой растянутости и откровенно лишних сцен и диалогов, как в «Химере», а визуальная и музыкальная составляющие с полным правом дают основание считать данный фильм зрелищным. Много раз показанные перемещения обезьян по деревьям хотелось посмотреть, «нажав на повтор», но я забывал, что нахожусь в кинозале.
Что ж, если хочется посмотреть хороший и зрелищный фильм, снятый не по комиксам и заставляющий задуматься, крайне рекомендую к просмотру данный фильм. Ставлю заслуженные
9 из 10

MediaInfo

Формат : AVI
Формат/Информация : Audio Video Interleave
Размер файла : 1,37 Гбайт
Продолжительность : 1 ч. 37 м.
Общий поток : 1998 Кбит/сек
Программа кодирования : VirtualDubMod 1.5.10.3 | www.virtualdub-fr.org || (build 2550/release)
Библиотека кодирования : VirtualDub build 30586/release
Видео
Идентификатор : 0
Формат : MPEG-4 Visual
Параметр BVOP формата : 1
Параметр QPel формата : Нет
Параметр GMC формата : Без точки перехода
Параметр матрицы формата : Default (H.263)
Режим смешивания : Сжатый битовый поток
Идентификатор кодека : DX50
Идентификатор кодека/Подсказка : DivX 5
Продолжительность : 1 ч. 37 м.
Битрейт : 1860 Кбит/сек
Ширина : 720 пикс.
Высота : 320 пикс.
Соотношение сторон : 2,25:1
Частота кадров : 25,000 кадр/сек
Цветовое пространство : YUV
Подвыборка цветности : 4:2:0
Битовая глубина : 8 бит
Тип развёртки : Прогрессивная
Метод сжатия : С потерями
Бит/(Пиксели*Кадры) : 0.323
Размер потока : 1,27 Гбайт (93%)
Библиотека кодирования : DivX 6.8.5 (UTC 2009-08-20)
Аудио
Идентификатор : 1
Формат : AC-3
Формат/Информация : Audio Coding 3
Расширение режима : CM (complete main)
Идентификатор кодека : 2000
Продолжительность : 1 ч. 37 м.
Вид битрейта : Постоянный
Битрейт : 128 Кбит/сек
Каналы : 2 канала
Расположение каналов : Front: L R
Частота : 48,0 КГц
Битовая глубина : 16 бит
Метод сжатия : С потерями
Размер потока : 89,7 Мбайт (6%)
Выравнивание : Разделение по промежуткам
Продолжительность промежутка : 40 мс. (1,00 видеокадр)
Время предзагрузки промежутка : 500 ms

Скриншот c названием фильма

Скриншоты

СМОТРЕТЬ ДО КОНЦА! ПОСЛЕ ТИТРОВ ЕСТЬ ПРОДОЛЖЕНИЕ!
Скачать

Скачать торрент!

Как скачивать? · Что такое торрент? · Рейтинг и ограничения

Сайт не распространяет и не хранит электронные версии произведений, а лишь предоставляет доступ к создаваемому пользователями каталогу ссылок на торрент-файлы, которые содержат только списки хеш-сумм

[Профиль] [ЛС]

Maikl

Стаж: 6 лет 1 месяц

Сообщений: 11

Пост Пост: #2 от 17-Авг-2011 11:41 (спустя 9 дней)

[Цитировать]

[url=http://***/element/1143250/]Стоящий фильм "Восстание планеты обезьян"[/url] с красивыми спецэффектами, трогательными сценами кино. Мне фильм понравился. Цезарь был просто не подражаем и мил))) Стоит посмотреть!
[Профиль] [ЛС]

zero85

Стаж: 5 лет 4 месяца

Сообщений: 17

Пост Пост: #3 от 20-Авг-2011 22:59 (спустя 3 дня)

[Цитировать]

А качество как?
Фильм с намеком на продолжение?
[Профиль] [ЛС]

aperepelkin

Стаж: 5 лет 4 месяца

Сообщений: 11

Откуда: Оренбургская

Пост Пост: #4 от 13-Сен-2011 11:32 (спустя 23 дня)

[Цитировать]

Качество ужасное. Лучше подождать ДВД.
[Профиль] [ЛС]

yury1987

Стаж: 5 лет 3 месяца

Сообщений: 4

Откуда: Калининград

Пост Пост: #5 от 24-Сен-2011 11:36 (спустя 11 дней)

[Цитировать]

Посмотрел, хороший фильм, но на раз.
Намека на продолжение нет

_________________
[Профиль] [ЛС]

asdasd2

Стаж: 5 лет 6 месяцев

Сообщений: 5

Пост Пост: #6 от 11-Ноя-2011 21:44 (спустя 1 месяц 17 дней)

[Цитировать]

достойный римейк
[Профиль] [ЛС]

bez problem

Пол:

Стаж: 5 лет 1 месяц

Сообщений: 1

Откуда: lawless country

Пост Пост: #7 от 31-Дек-2011 10:32 (спустя 1 месяц 19 дней)

[Цитировать]

Спасибо огромное! Очень понравился фильм!
[Профиль] [ЛС]
Показать сообщения:    
Ответить на тему

Текущее время: Сегодня 18:39

Часовой пояс: GMT + 4



Вы не можете начинать темы
Вы не можете отвечать на сообщения
Вы не можете редактировать свои сообщения
Вы не можете удалять свои сообщения
Вы не можете голосовать в опросах
Вы не можете прикреплять файлы к сообщениям
Вы не можете скачивать файлы