Суперменеджер, или Мотыга судьбы (Богдан Дробязко) [2011, Россия, фэнтези, комедия, приключения, BDRip-AVC] R5

Ответить на тему
 
Автор Сообщение

user ®

Стаж: 7 лет 7 месяцев

Сообщений: 20008

Пост Пост: #1 от 20-Июл-2011 09:50

[Цитировать]

Суперменеджер, или Мотыга судьбы-«Офисы - хоббитам!» Год выпуска: 2011
Страна: Россия
Киностудия: Кинокомпания CTB
Жанр: фэнтези, комедия, приключения
Продолжительность: 01:21:37
Cубтитры: нет
Режиссер: Богдан Дробязко
В ролях: Юрий Чурсин, Сергей Медведев, Екатерина Вилкова, Екатерина Астахова, Иван Охлобыстин, Александр Ильин мл., Алексей Маклаков, Александр Пожаров, Петр Федоров...
Описание: Давным-давно в одном большом городе, когда кризис вроде бы миновал, жили два брата. Младший Никита был самым обыкновенным… Хоббитом, капитаном арбалетчиков из Клана Лысых Холмов, любил пиво, ролевые игры, эльфийский лист, девушку Настю, романы про Средиземье и ничего не делать. Ну, а старший брат Егор служил топ-менеджером большой нефтяной компании. Но у любого менеджера бывает белая полоса, а бывает… увольнение.
В один прекрасный день Егор остался без работы, без офиса и без девушки. И тогда решил Егор обратиться за помощью к своему младшему брату, правда, у того тоже начались большие проблемы. Пропала мотыга Великого Торина — друга и соратника Никиты…

Тип релиза: BDRip,
Контейнер: MKV
Видео: 1040x560 (1.857:1), 23.976 fps, H264 MPEG-4 ~2110 kbps avg, 0.151 bit/pixel
Аудио: 48 kHz, AC3 6 ch, 448.00 kbps Constant
Обложки и блины: http://multi-up.com/516967

MediaInfo

Общее
Полное имя : Supermenedger.Motyga.sudby.2011.O.BDRip-AVC.mkv
Формат : Matroska
Размер файла : 1,46 Гбайт
Продолжительность : 1 ч. 21 м.
Общий поток : 2559 Кбит/сек
Название фильма : avproh
Дата кодирования : UTC 2011-07-02 02:34:57
Программа кодирования : mkvmerge v4.8.0 ('I Got The...') сборка от May 24 2011 03:12:58
Библиотека кодирования : libebml v1.2.0 + libmatroska v1.1.0
Видео
Идентификатор : 1
Формат : AVC
Формат/Информация : Advanced Video Codec
Профиль формата : High@L4.1
Параметр CABAC формата : Да
Параметр ReFrames формата : 11 кадров
Идентификатор кодека : V_MPEG4/ISO/AVC
Продолжительность : 1 ч. 21 м.
Битрейт : 2110 Кбит/сек
Ширина : 1040 пикс.
Высота : 560 пикс.
Соотношение сторон : 1,857
Частота кадров : 23,976 кадр/сек
Цветовое пространство : YUV
Подвыборка цветности : 4:2:0
Битовая глубина : 8 бит
Тип развёртки : Прогрессивная
Бит/(Пиксели*Кадры) : 0.151
Размер потока : 1,17 Гбайт (81%)
Библиотека кодирования : x264 core 114 r1913 5fd3dce
Настройки программы : cabac=1 / ref=11 / deblock=1:-2:-1 / analyse=0x3:0x113 / me=umh / subme=9 / psy=1 / psy_rd=1.00:0.10 / mixed_ref=1 / me_range=32 / chroma_me=1 / trellis=2 / 8x8dct=1 / cqm=0 / deadzone=21,11 / fast_pskip=1 / chroma_qp_offset=-3 / threads=9 / sliced_threads=0 / nr=0 / decimate=1 / interlaced=0 / constrained_intra=0 / bframes=10 / b_pyramid=2 / b_adapt=2 / b_bias=0 / direct=3 / weightb=1 / open_gop=0 / weightp=0 / keyint=250 / keyint_min=23 / scenecut=40 / intra_refresh=0 / rc_lookahead=80 / rc=2pass / mbtree=1 / bitrate=2110 / ratetol=1.0 / qcomp=0.60 / qpmin=0 / qpmax=69 / qpstep=4 / cplxblur=20.0 / qblur=0.5 / ip_ratio=1.40 / aq=2:0.90
Язык : Russian
Аудио
Идентификатор : 2
Формат : AC-3
Формат/Информация : Audio Coding 3
Расширение режима : CM (complete main)
Идентификатор кодека : A_AC3
Продолжительность : 1 ч. 21 м.
Вид битрейта : Постоянный
Битрейт : 448 Кбит/сек
Каналы : 6 каналов
Расположение каналов : Front: L C R, Side: L R, LFE
Частота : 48,0 КГц
Битовая глубина : 16 бит
Метод сжатия : С потерями
Размер потока : 262 Мбайт (18%)
Язык : Russian

Скриншот c названием фильма

Скриншоты

Скачать

Скачать торрент!

Как скачивать? · Что такое торрент? · Рейтинг и ограничения

Сайт не распространяет и не хранит электронные версии произведений, а лишь предоставляет доступ к создаваемому пользователями каталогу ссылок на торрент-файлы, которые содержат только списки хеш-сумм

[Профиль] [ЛС]

saave

Стаж: 5 лет 2 месяца

Сообщений: 20

Пост Пост: #2 от 03-Янв-2012 18:31 (спустя 5 месяцев 14 дней)

[Цитировать]

44 скачивания, но так и ни одного коммента....странно...
[Профиль] [ЛС]

BlackSky

Пол:

Стаж: 5 лет 2 месяца

Сообщений: 38

Откуда: Рязань

Пост Пост: #3 от 03-Янв-2012 19:26 (спустя 55 минут)

[Цитировать]

Ну фильм из серии бред, но посмотреть, посмеяться стоит.

_________________
Мы рождены, чтоб сказку сделать былью
[Профиль] [ЛС]

7lobiN

Стаж: 6 лет 4 месяца

Сообщений: 2012

Пост Пост: #4 от 05-Янв-2012 17:36 (спустя 1 день 22 часа)

[Цитировать]

но посмотреть, посмеяться стоит
не стОит. говно это. фильмом это нельзя назвать. смеяться там негде.
бред
вот это наверно единственное цензурное определение сего "произведения".
[Профиль] [ЛС]

brokoz

Стаж: 4 года 6 месяцев

Сообщений: 1

Пост Пост: #5 от 13-Май-2012 14:07 (спустя 4 месяца 7 дней)

[Цитировать]

Хороший фильм мне очень понравилось было приятно посмотреть
_________________
Суперменеджер, или Мотыга смотреть онлайн
[Профиль] [ЛС]
Показать сообщения:    
Ответить на тему

Текущее время: Сегодня 05:11

Часовой пояс: GMT + 4



Вы не можете начинать темы
Вы не можете отвечать на сообщения
Вы не можете редактировать свои сообщения
Вы не можете удалять свои сообщения
Вы не можете голосовать в опросах
Вы не можете прикреплять файлы к сообщениям
Вы не можете скачивать файлы