Аз Есмь / Я / I Am (Джон Уорд / John Ward) [2010, США, Драма, DVDRip] Sub rus + original eng

Ответить на тему
 
Автор Сообщение

user ®

Стаж: 7 лет 7 месяцев

Сообщений: 20008

Пост Пост: #1 от 20-Июл-2011 09:47

[Цитировать]

Аз Есмь / Я / I Am
Страна: СШАЖанр: ДрамаГод выпуска: 2010
Продолжительность: 01:27:01
Перевод: Субтитры
Cубтитры: [Русские подключаемые]
Оригинальная аудиодорожка: английский
Режиссер: Джон Уорд / John Ward
В ролях: Кейт Бишоп, Кортни Дакворт, Гари Хурани, Грег Фиск, Джози Гэммелл, Стефан Хайек, Джей Хиндл, Эми Холлэнд, Эйс Марреро
Описание: 3500 лет назад Бог дал нам десять заповедей. Со временем большая часть была забыта. Будет полезно напомнить: Я Господь, Бог твой, да не будет у тебя других богов перед лицем моим; не делай себе кумира и никакого изображения; не произноси имени Господа, Бога твоего, напрасно; наблюдай день субботний; почитай отца твоего и матерь твою; не убивай; не прелюбодействуй; не кради; не лжесвидетельствуй; не завидуй.
Сэмпл: http://onemove.ru/55398/

Качество видео: DVDRip
Формат видео: AVI
Видео: 624x352 (1.77:1), 23.976 fps, XviD build 50 ~983 kbps avg, 0.19 bit/pixel
Аудио: 48 kHz, MPEG Layer 3, 2 ch, ~128.00 kbps avg

MediaInfo

Общее
Полное имя : C:\Users\Tudors\Desktop\I AM\iam.xvid.нушрок.avi
Формат : AVI
Формат/Информация : Audio Video Interleave
Размер файла : 698 Мбайт
Продолжительность : 1 ч. 27 м.
Общий поток : 1121 Кбит/сек
Программа кодирования : VirtualDubMod 1.5.10.2 (build 2540/release)
Библиотека кодирования : VirtualDubMod build 2540/release
Видео
Идентификатор : 0
Формат : MPEG-4 Visual
Профиль формата : Advanced Simple@L5
Параметр BVOP формата : 2
Параметр QPel формата : Нет
Параметр GMC формата : Без точки перехода
Параметр матрицы формата : Default (H.263)
Идентификатор кодека : XVID
Идентификатор кодека/Подсказка : XviD
Продолжительность : 1 ч. 27 м.
Битрейт : 983 Кбит/сек
Ширина : 624 пикс.
Высота : 352 пикс.
Соотношение сторон : 16:9
Частота кадров : 23,976 кадр/сек
Цветовое пространство : YUV
Подвыборка цветности : 4:2:0
Битовая глубина : 8 бит
Тип развёртки : Прогрессивная
Метод сжатия : С потерями
Бит/(Пиксели*Кадры) : 0.187
Размер потока : 612 Мбайт (88%)
Библиотека кодирования : XviD 1.2.1 (UTC 2008-12-04)
Аудио
Идентификатор : 1
Формат : MPEG Audio
Версия формата : Version 1
Профиль формата : Layer 3
Идентификатор кодека : 55
Идентификатор кодека/Подсказка : MP3
Продолжительность : 1 ч. 26 м.
Вид битрейта : Постоянный
Битрейт : 128 Кбит/сек
Каналы : 2 канала
Частота : 48,0 КГц
Метод сжатия : С потерями
Размер потока : 79,6 Мбайт (11%)
Выравнивание : Соединение по промежуткам
Продолжительность промежутка : 42 мс. (1,00 видеокадр)
Время предзагрузки промежутка : 504 ms
Библиотека кодирования : LAME3.98r
Настройки программы : -m s -V 4 -q 2 -lowpass 17 -b 128

Скриншот c названием фильма

Скриншоты

пример субтитров

21
00:01:33,660 --> 00:01:36,823
ГОДОМ РАНЕЕ
22
00:01:41,468 --> 00:01:46,496
# У меня есть секрет,
который мне нужно хранить
23
00:01:49,476 --> 00:01:54,914
# Это сложно
# Ложь сильна сейчас
24
00:01:56,316 --> 00:02:00,309
# Ну, обман так силен
# Я не могу его оттолкнуть
25
00:02:00,487 --> 00:02:04,287
# Поэтому я обнимаю тебя
# Просто чтобы нормально добраться
26
00:02:04,457 --> 00:02:07,824
# До моего дома,
который охвачен
27
00:02:08,194 --> 00:02:12,494
# Огнем
28
00:02:12,665 --> 00:02:16,123
# Возможно,
уже слишком поздно
29
00:02:16,503 --> 00:02:20,098
# Для того, чтоб
тебе развернуться
30
00:02:20,540 --> 00:02:23,998
# Моя душа
слишком пропащая?
31
00:02:24,177 --> 00:02:26,611
# Не убегай
32
00:02:27,080 --> 00:02:30,641
# Не убегай
# Прошу тебя, останься
33
00:02:31,217 --> 00:02:34,812
# Прошу тебя,
не прячься
34
00:02:35,021 --> 00:02:39,014
# Не прячься
от боли
Скачать

Скачать торрент!

Как скачивать? · Что такое торрент? · Рейтинг и ограничения

Сайт не распространяет и не хранит электронные версии произведений, а лишь предоставляет доступ к создаваемому пользователями каталогу ссылок на торрент-файлы, которые содержат только списки хеш-сумм

[Профиль] [ЛС]
Показать сообщения:    
Ответить на тему

Текущее время: Сегодня 10:05

Часовой пояс: GMT + 4



Вы не можете начинать темы
Вы не можете отвечать на сообщения
Вы не можете редактировать свои сообщения
Вы не можете удалять свои сообщения
Вы не можете голосовать в опросах
Вы не можете прикреплять файлы к сообщениям
Вы не можете скачивать файлы