Интерны (61-80 серии из ???) (Максим Пежемский) [2011 г., Комедийный сериал, DVB]

Ответить на тему
 
Автор Сообщение

user ®

Стаж: 7 лет 7 месяцев

Сообщений: 20008

Пост Пост: #1 от 11-Июл-2011 23:17

[Цитировать]

Интерны (61-80 серии из ???)
Год выпуска: 2011
Жанр: Комедийный телесериал (ситком)
Продолжительность: ~25 минут серия
Производство: НТВ КИНО
Режиссер: Максим ПежемскийВ ролях: Иван Охлобыстин, Вадим Демчог, Светлана Камынина, Александр Ильин мл., Кристина Асмус, Илья Глинников, Дмитрий Шаракоис и др. Сюжет "Интернов" несложен. Доктор Быков, которого играет знаменитый Иван Охлобыстин, получает на обучение четверых студентов. Этой новости он совсем не рад и начинает разыгрывать ребят со всем медицинским цинизмом.
Персонажи самих интернов - очень разные. "Ботаник" Борис Левин (Дмитрий Шаракоис) знает, как лечить больных только в теориии и боится пациенток-женщин. На экране он появляется в колоритных ретро-очках, которые, по словам Нины Михайлюк, достались ему от дедушки. Прямо в них Дмитрий пришел на пробы и получил роль. Кстати, у самого актера - стопроцентное зрение.
"Мажор" Глеб Романенко (Илья Глинников) - сын главного врача больницы. Медицина - абсолютно не его призвание, он предпочитает тусоваться в клубах, а в рабочее время спать в ординаторской.
"Тургеневская барышня" Варвара Черноус (Кристина Асмус) решила стать врачом по призванию. Ее не смущают маленькая зарплата и неприятные обязанности, вроде выноса уток за больными. Она постоянно попадает в неловкие ситуации.
"Раздолбай" Семен Лобанов (Александр Ильин) до интернатуры работал в скорой помощи и считает, что знает о своей профессии много. Он добрый парень, он относится к своим обязанностям без должной аккуратности, и за это получает массу насмешек от доктора Быкова и его приятеля венеролога Ивана Купитмана.
Как поддчеркивают создатели сериала, сценаристами выступали медики, поэтому все розыгрыши и забавные ситуации взяты из реальной врачебной практики. Обошелся сериал и без традиционного для этого жанра закадрового смеха - серии и так достаточно смешные.
Качество: DVB
Формат: MPEG
Видео кодек: MPEG2
Аудио кодек: MPEG Audio
Видео: MPEG2 Video 704x576 (4:3) 25.00fps ~1580 Kbps
Аудио: MPEG Audio 48000Hz mono 192 Kbps
Релиз спутникового канала: -=-=-=-=-=-=-=-=-=-=-=-=-=-=-=-=-=-=-=-=-=-=-=-=-=-=-=-=-=-=-=-=-=-=-=-=-=-=-=-=-=-=-

Скриншоты

61 СЕРИЯ

62 СЕРИЯ

63 СЕРИЯ

64 СЕРИЯ

65 СЕРИЯ

66 СЕРИЯ

67 СЕРИЯ

68 СЕРИЯ

69 СЕРИЯ

70 СЕРИЯ

71 СЕРИЯ

72 СЕРИЯ

73 СЕРИЯ

74 СЕРИЯ

75 СЕРИЯ

76 СЕРИЯ

77 СЕРИЯ

78 СЕРИЯ

79 СЕРИЯ

80 СЕРИЯ

MediaInfo

61 СЕРИЯ

General
Complete name : M:\ИНТЕРНЫ_EUTELSAT_W4_W7_36°_В.Д\61_Interny_Sat_remux_TNT_by_Galebcev.mpg
Format : MPEG-PS
File size : 316 MiB
Duration : 25mn 8s
Overall bit rate : 1 757 Kbps
Writing library : (c) 1998-2008 Womble Multimedia, Inc. / MPEG Video Wizard (08/2008) / Dec 31 2008
Video
ID : 224 (0xE0)
Format : MPEG Video
Format version : Version 2
Format profile : Main@Main
Format settings, BVOP : Yes
Format settings, Matrix : Default
Format settings, GOP : M=3, N=21
Duration : 25mn 8s
Bit rate mode : Variable
Bit rate : 1 530 Kbps
Nominal bit rate : 15.0 Mbps
Width : 704 pixels
Height : 576 pixels
Display aspect ratio : 4:3
Frame rate : 25.000 fps
Standard : PAL
Color space : YUV
Chroma subsampling : 4:2:0
Bit depth : 8 bits
Scan type : Progressive
Scan order : Top Field First
Compression mode : Lossy
Bits/(Pixel*Frame) : 0.151
Stream size : 275 MiB (87%)
Writing library : (c) 1998-2008 Womble Multimedia, Inc. / MPEG Video Wizard (08/2008) / Dec 31 2008
Audio
ID : 192 (0xC0)
Format : MPEG Audio
Format version : Version 1
Format profile : Layer 2
Mode extension : Intensity Stereo + MS Stereo
Duration : 25mn 8s
Bit rate mode : Constant
Bit rate : 192 Kbps
Channel(s) : 1 channel
Sampling rate : 48.0 KHz
Compression mode : Lossy
Video delay : -40ms
Stream size : 34.5 MiB (11%)

62 СЕРИЯ

General
Complete name : M:\ИНТЕРНЫ_EUTELSAT_W4_W7_36°_В.Д\62_Interny_Sat_remux_TNT_by_Galebcev.mpg
Format : MPEG-PS
File size : 330 MiB
Duration : 23mn 36s
Overall bit rate : 1 953 Kbps
Writing library : (c) 1998-2008 Womble Multimedia, Inc. / MPEG Video Wizard (08/2008) / Dec 31 2008
Video
ID : 224 (0xE0)
Format : MPEG Video
Format version : Version 2
Format profile : Main@Main
Format settings, BVOP : Yes
Format settings, Matrix : Default
Format settings, GOP : M=3, N=21
Duration : 23mn 36s
Bit rate mode : Variable
Bit rate : 1 722 Kbps
Nominal bit rate : 15.0 Mbps
Width : 704 pixels
Height : 576 pixels
Display aspect ratio : 4:3
Frame rate : 25.000 fps
Standard : PAL
Color space : YUV
Chroma subsampling : 4:2:0
Bit depth : 8 bits
Scan type : Progressive
Scan order : Top Field First
Compression mode : Lossy
Bits/(Pixel*Frame) : 0.170
Stream size : 291 MiB (88%)
Writing library : (c) 1998-2008 Womble Multimedia, Inc. / MPEG Video Wizard (08/2008) / Dec 31 2008
Audio
ID : 192 (0xC0)
Format : MPEG Audio
Format version : Version 1
Format profile : Layer 2
Mode extension : Intensity Stereo + MS Stereo
Duration : 23mn 36s
Bit rate mode : Constant
Bit rate : 192 Kbps
Channel(s) : 1 channel
Sampling rate : 48.0 KHz
Compression mode : Lossy
Video delay : -40ms
Stream size : 32.4 MiB (10%)

63 СЕРИЯ

General
Complete name : M:\ИНТЕРНЫ_EUTELSAT_W4_W7_36°_В.Д\63_Interny_Sat_remux_TNT_by_Galebcev.mpg
Format : MPEG-PS
File size : 340 MiB
Duration : 24mn 52s
Overall bit rate : 1 912 Kbps
Writing library : (c) 1998-2008 Womble Multimedia, Inc. / MPEG Video Wizard (08/2008) / Dec 31 2008
Video
ID : 224 (0xE0)
Format : MPEG Video
Format version : Version 2
Format profile : Main@Main
Format settings, BVOP : Yes
Format settings, Matrix : Default
Format settings, GOP : M=3, N=21
Duration : 24mn 52s
Bit rate mode : Variable
Bit rate : 1 682 Kbps
Nominal bit rate : 15.0 Mbps
Width : 704 pixels
Height : 576 pixels
Display aspect ratio : 4:3
Frame rate : 25.000 fps
Standard : PAL
Color space : YUV
Chroma subsampling : 4:2:0
Bit depth : 8 bits
Scan type : Progressive
Scan order : Top Field First
Compression mode : Lossy
Bits/(Pixel*Frame) : 0.166
Stream size : 299 MiB (88%)
Writing library : (c) 1998-2008 Womble Multimedia, Inc. / MPEG Video Wizard (08/2008) / Dec 31 2008
Audio
ID : 192 (0xC0)
Format : MPEG Audio
Format version : Version 1
Format profile : Layer 2
Mode extension : Intensity Stereo + MS Stereo
Duration : 24mn 52s
Bit rate mode : Constant
Bit rate : 192 Kbps
Channel(s) : 1 channel
Sampling rate : 48.0 KHz
Compression mode : Lossy
Video delay : -40ms
Stream size : 34.2 MiB (10%)

64 СЕРИЯ

General
Complete name : M:\ИНТЕРНЫ_EUTELSAT_W4_W7_36°_В.Д\64_Interny_Sat_remux_TNT_by_Galebcev.mpg
Format : MPEG-PS
File size : 355 MiB
Duration : 23mn 25s
Overall bit rate : 2 120 Kbps
Writing library : (c) 1998-2008 Womble Multimedia, Inc. / MPEG Video Wizard (08/2008) / Dec 31 2008
Video
ID : 224 (0xE0)
Format : MPEG Video
Format version : Version 2
Format profile : Main@Main
Format settings, BVOP : Yes
Format settings, Matrix : Default
Format settings, GOP : M=3, N=21
Duration : 23mn 24s
Bit rate mode : Variable
Bit rate : 1 886 Kbps
Nominal bit rate : 15.0 Mbps
Width : 704 pixels
Height : 576 pixels
Display aspect ratio : 4:3
Frame rate : 25.000 fps
Standard : PAL
Color space : YUV
Chroma subsampling : 4:2:0
Bit depth : 8 bits
Scan type : Progressive
Scan order : Top Field First
Compression mode : Lossy
Bits/(Pixel*Frame) : 0.186
Stream size : 316 MiB (89%)
Writing library : (c) 1998-2008 Womble Multimedia, Inc. / MPEG Video Wizard (08/2008) / Dec 31 2008
Audio
ID : 192 (0xC0)
Format : MPEG Audio
Format version : Version 1
Format profile : Layer 2
Mode extension : Intensity Stereo + MS Stereo
Duration : 23mn 25s
Bit rate mode : Constant
Bit rate : 192 Kbps
Channel(s) : 1 channel
Sampling rate : 48.0 KHz
Compression mode : Lossy
Video delay : -40ms
Stream size : 32.2 MiB (9%)

65 СЕРИЯ

General
Complete name : M:\ИНТЕРНЫ_EUTELSAT_W4_W7_36°_В.Д\65_Interny_Sat_remux_TNT_by_Galebcev.mpg
Format : MPEG-PS
File size : 348 MiB
Duration : 24mn 0s
Overall bit rate : 2 026 Kbps
Writing library : (c) 1998-2008 Womble Multimedia, Inc. / MPEG Video Wizard (08/2008) / Dec 31 2008
Video
ID : 224 (0xE0)
Format : MPEG Video
Format version : Version 2
Format profile : Main@Main
Format settings, BVOP : Yes
Format settings, Matrix : Default
Format settings, GOP : M=3, N=21
Duration : 24mn 0s
Bit rate mode : Variable
Bit rate : 1 793 Kbps
Nominal bit rate : 15.0 Mbps
Width : 704 pixels
Height : 576 pixels
Display aspect ratio : 4:3
Frame rate : 25.000 fps
Standard : PAL
Color space : YUV
Chroma subsampling : 4:2:0
Bit depth : 8 bits
Scan type : Progressive
Scan order : Top Field First
Compression mode : Lossy
Bits/(Pixel*Frame) : 0.177
Stream size : 308 MiB (89%)
Writing library : (c) 1998-2008 Womble Multimedia, Inc. / MPEG Video Wizard (08/2008) / Dec 31 2008
Audio
ID : 192 (0xC0)
Format : MPEG Audio
Format version : Version 1
Format profile : Layer 2
Mode extension : Intensity Stereo + MS Stereo
Duration : 24mn 0s
Bit rate mode : Constant
Bit rate : 192 Kbps
Channel(s) : 1 channel
Sampling rate : 48.0 KHz
Compression mode : Lossy
Video delay : -40ms
Stream size : 33.0 MiB (9%)

66 СЕРИЯ

General
Complete name : M:\ИНТЕРНЫ_EUTELSAT_W4_W7_36°_В.Д\66_Interny_Sat_remux_TNT_by_Galebcev.mpg
Format : MPEG-PS
File size : 391 MiB
Duration : 25mn 5s
Overall bit rate : 2 181 Kbps
Writing library : (c) 1998-2008 Womble Multimedia, Inc. / MPEG Video Wizard (08/2008) / Dec 31 2008
Video
ID : 224 (0xE0)
Format : MPEG Video
Format version : Version 2
Format profile : Main@Main
Format settings, BVOP : Yes
Format settings, Matrix : Default
Format settings, GOP : M=3, N=21
Duration : 25mn 5s
Bit rate mode : Variable
Bit rate : 1 946 Kbps
Nominal bit rate : 15.0 Mbps
Width : 704 pixels
Height : 576 pixels
Display aspect ratio : 4:3
Frame rate : 25.000 fps
Standard : PAL
Color space : YUV
Chroma subsampling : 4:2:0
Bit depth : 8 bits
Scan type : Progressive
Scan order : Top Field First
Compression mode : Lossy
Bits/(Pixel*Frame) : 0.192
Stream size : 349 MiB (89%)
Writing library : (c) 1998-2008 Womble Multimedia, Inc. / MPEG Video Wizard (08/2008) / Dec 31 2008
Audio
ID : 192 (0xC0)
Format : MPEG Audio
Format version : Version 1
Format profile : Layer 2
Mode extension : Intensity Stereo + MS Stereo
Duration : 25mn 5s
Bit rate mode : Constant
Bit rate : 192 Kbps
Channel(s) : 1 channel
Sampling rate : 48.0 KHz
Compression mode : Lossy
Video delay : -40ms
Stream size : 34.5 MiB (9%)

67 СЕРИЯ

General
Complete name : M:\ИНТЕРНЫ_EUTELSAT_W4_W7_36°_В.Д\67_Interny_Sat_remux_TNT_by_Galebcev.mpg
Format : MPEG-PS
File size : 341 MiB
Duration : 24mn 13s
Overall bit rate : 1 969 Kbps
Writing library : (c) 1998-2008 Womble Multimedia, Inc. / MPEG Video Wizard (08/2008) / Dec 31 2008
Video
ID : 224 (0xE0)
Format : MPEG Video
Format version : Version 2
Format profile : Main@Main
Format settings, BVOP : Yes
Format settings, Matrix : Default
Format settings, GOP : M=3, N=21
Duration : 24mn 13s
Bit rate mode : Variable
Bit rate : 1 737 Kbps
Nominal bit rate : 15.0 Mbps
Width : 704 pixels
Height : 576 pixels
Display aspect ratio : 4:3
Frame rate : 25.000 fps
Standard : PAL
Color space : YUV
Chroma subsampling : 4:2:0
Bit depth : 8 bits
Scan type : Progressive
Scan order : Top Field First
Compression mode : Lossy
Bits/(Pixel*Frame) : 0.171
Stream size : 301 MiB (88%)
Writing library : (c) 1998-2008 Womble Multimedia, Inc. / MPEG Video Wizard (08/2008) / Dec 31 2008
Audio
ID : 192 (0xC0)
Format : MPEG Audio
Format version : Version 1
Format profile : Layer 2
Mode extension : Intensity Stereo + MS Stereo
Duration : 24mn 13s
Bit rate mode : Constant
Bit rate : 192 Kbps
Channel(s) : 1 channel
Sampling rate : 48.0 KHz
Compression mode : Lossy
Video delay : -40ms
Stream size : 33.3 MiB (10%)

68 СЕРИЯ

General
Complete name : M:\ИНТЕРНЫ_EUTELSAT_W4_W7_36°_В.Д\68_Interny_Sat_remux_TNT_by_Galebcev.mpg
Format : MPEG-PS
File size : 347 MiB
Duration : 24mn 21s
Overall bit rate : 1 989 Kbps
Writing library : (c) 1998-2008 Womble Multimedia, Inc. / MPEG Video Wizard (08/2008) / Dec 31 2008
Video
ID : 224 (0xE0)
Format : MPEG Video
Format version : Version 2
Format profile : Main@Main
Format settings, BVOP : Yes
Format settings, Matrix : Default
Format settings, GOP : M=3, N=21
Duration : 24mn 21s
Bit rate mode : Variable
Bit rate : 1 757 Kbps
Nominal bit rate : 15.0 Mbps
Width : 704 pixels
Height : 576 pixels
Display aspect ratio : 4:3
Frame rate : 25.000 fps
Standard : PAL
Color space : YUV
Chroma subsampling : 4:2:0
Bit depth : 8 bits
Scan type : Progressive
Scan order : Top Field First
Compression mode : Lossy
Bits/(Pixel*Frame) : 0.173
Stream size : 306 MiB (88%)
Writing library : (c) 1998-2008 Womble Multimedia, Inc. / MPEG Video Wizard (08/2008) / Dec 31 2008
Audio
ID : 192 (0xC0)
Format : MPEG Audio
Format version : Version 1
Format profile : Layer 2
Mode extension : Intensity Stereo + MS Stereo
Duration : 24mn 21s
Bit rate mode : Constant
Bit rate : 192 Kbps
Channel(s) : 1 channel
Sampling rate : 48.0 KHz
Compression mode : Lossy
Video delay : -40ms
Stream size : 33.5 MiB (10%)

69 СЕРИЯ

General
Complete name : M:\ИНТЕРНЫ_EUTELSAT_W4_W7_36°_В.Д\69_Interny_Sat_remux_TNT_by_Galebcev.mpg
Format : MPEG-PS
File size : 378 MiB
Duration : 24mn 18s
Overall bit rate : 2 175 Kbps
Writing library : (c) 1998-2008 Womble Multimedia, Inc. / MPEG Video Wizard (08/2008) / Dec 31 2008
Video
ID : 224 (0xE0)
Format : MPEG Video
Format version : Version 2
Format profile : Main@Main
Format settings, BVOP : Yes
Format settings, Matrix : Default
Format settings, GOP : M=3, N=21
Duration : 24mn 18s
Bit rate mode : Variable
Bit rate : 1 940 Kbps
Nominal bit rate : 15.0 Mbps
Width : 704 pixels
Height : 576 pixels
Display aspect ratio : 4:3
Frame rate : 25.000 fps
Standard : PAL
Color space : YUV
Chroma subsampling : 4:2:0
Bit depth : 8 bits
Scan type : Progressive
Scan order : Top Field First
Compression mode : Lossy
Bits/(Pixel*Frame) : 0.191
Stream size : 337 MiB (89%)
Writing library : (c) 1998-2008 Womble Multimedia, Inc. / MPEG Video Wizard (08/2008) / Dec 31 2008
Audio
ID : 192 (0xC0)
Format : MPEG Audio
Format version : Version 1
Format profile : Layer 2
Mode extension : Intensity Stereo + MS Stereo
Duration : 24mn 18s
Bit rate mode : Constant
Bit rate : 192 Kbps
Channel(s) : 1 channel
Sampling rate : 48.0 KHz
Compression mode : Lossy
Video delay : -40ms
Stream size : 33.4 MiB (9%)

70 СЕРИЯ

General
Complete name : M:\ИНТЕРНЫ_EUTELSAT_W4_W7_36°_В.Д\70_Interny_Sat_remux_TNT_by_Galebcev.mpg
Format : MPEG-PS
File size : 346 MiB
Duration : 23mn 49s
Overall bit rate : 2 033 Kbps
Writing library : (c) 1998-2008 Womble Multimedia, Inc. / MPEG Video Wizard (08/2008) / Dec 31 2008
Video
ID : 224 (0xE0)
Format : MPEG Video
Format version : Version 2
Format profile : Main@Main
Format settings, BVOP : Yes
Format settings, Matrix : Default
Format settings, GOP : M=3, N=21
Duration : 23mn 49s
Bit rate mode : Variable
Bit rate : 1 800 Kbps
Nominal bit rate : 15.0 Mbps
Width : 704 pixels
Height : 576 pixels
Display aspect ratio : 4:3
Frame rate : 25.000 fps
Standard : PAL
Color space : YUV
Chroma subsampling : 4:2:0
Bit depth : 8 bits
Scan type : Progressive
Scan order : Top Field First
Compression mode : Lossy
Bits/(Pixel*Frame) : 0.178
Stream size : 307 MiB (89%)
Writing library : (c) 1998-2008 Womble Multimedia, Inc. / MPEG Video Wizard (08/2008) / Dec 31 2008
Audio
ID : 192 (0xC0)
Format : MPEG Audio
Format version : Version 1
Format profile : Layer 2
Mode extension : Intensity Stereo + MS Stereo
Duration : 23mn 49s
Bit rate mode : Constant
Bit rate : 192 Kbps
Channel(s) : 1 channel
Sampling rate : 48.0 KHz
Compression mode : Lossy
Video delay : -40ms
Stream size : 32.7 MiB (9%)

71 СЕРИЯ

General
Complete name : M:\ИНТЕРНЫ_EUTELSAT_W4_W7_36°_В.Д\71_Interny_Sat_remux_TNT_by_Galebcev.mpg
Format : MPEG-PS
File size : 350 MiB
Duration : 25mn 3s
Overall bit rate : 1 955 Kbps
Writing library : (c) 1998-2008 Womble Multimedia, Inc. / MPEG Video Wizard (08/2008) / Dec 31 2008
Video
ID : 224 (0xE0)
Format : MPEG Video
Format version : Version 2
Format profile : Main@Main
Format settings, BVOP : Yes
Format settings, Matrix : Default
Format settings, GOP : M=3, N=21
Duration : 25mn 3s
Bit rate mode : Variable
Bit rate : 1 724 Kbps
Nominal bit rate : 15.0 Mbps
Width : 704 pixels
Height : 576 pixels
Display aspect ratio : 4:3
Frame rate : 25.000 fps
Standard : PAL
Color space : YUV
Chroma subsampling : 4:2:0
Bit depth : 8 bits
Scan type : Progressive
Scan order : Top Field First
Compression mode : Lossy
Bits/(Pixel*Frame) : 0.170
Stream size : 309 MiB (88%)
Writing library : (c) 1998-2008 Womble Multimedia, Inc. / MPEG Video Wizard (08/2008) / Dec 31 2008
Audio
ID : 192 (0xC0)
Format : MPEG Audio
Format version : Version 1
Format profile : Layer 2
Mode extension : Intensity Stereo + MS Stereo
Duration : 25mn 3s
Bit rate mode : Constant
Bit rate : 192 Kbps
Channel(s) : 1 channel
Sampling rate : 48.0 KHz
Compression mode : Lossy
Video delay : -40ms
Stream size : 34.4 MiB (10%)

72 СЕРИЯ

General
Complete name : M:\ИНТЕРНЫ_EUTELSAT_W4_W7_36°_В.Д\72_Interny_Sat_remux_TNT_by_Galebcev.mpg
Format : MPEG-PS
File size : 353 MiB
Duration : 24mn 4s
Overall bit rate : 2 048 Kbps
Writing library : (c) 1998-2008 Womble Multimedia, Inc. / MPEG Video Wizard (08/2008) / Dec 31 2008
Video
ID : 224 (0xE0)
Format : MPEG Video
Format version : Version 2
Format profile : Main@Main
Format settings, BVOP : Yes
Format settings, Matrix : Default
Format settings, GOP : M=3, N=21
Duration : 24mn 4s
Bit rate mode : Variable
Bit rate : 1 815 Kbps
Nominal bit rate : 15.0 Mbps
Width : 704 pixels
Height : 576 pixels
Display aspect ratio : 4:3
Frame rate : 25.000 fps
Standard : PAL
Color space : YUV
Chroma subsampling : 4:2:0
Bit depth : 8 bits
Scan type : Progressive
Scan order : Top Field First
Compression mode : Lossy
Bits/(Pixel*Frame) : 0.179
Stream size : 312 MiB (89%)
Writing library : (c) 1998-2008 Womble Multimedia, Inc. / MPEG Video Wizard (08/2008) / Dec 31 2008
Audio
ID : 192 (0xC0)
Format : MPEG Audio
Format version : Version 1
Format profile : Layer 2
Mode extension : Intensity Stereo + MS Stereo
Duration : 24mn 4s
Bit rate mode : Constant
Bit rate : 192 Kbps
Channel(s) : 1 channel
Sampling rate : 48.0 KHz
Compression mode : Lossy
Video delay : -40ms
Stream size : 33.1 MiB (9%)

73 СЕРИЯ

General
Complete name : M:\ИНТЕРНЫ_EUTELSAT_W4_W7_36°_В.Д\73_Interny_Sat_remux_TNT_by_Galebcev.mpg
Format : MPEG-PS
File size : 377 MiB
Duration : 23mn 9s
Overall bit rate : 2 278 Kbps
Writing library : (c) 1998-2008 Womble Multimedia, Inc. / MPEG Video Wizard (08/2008) / Dec 31 2008
Video
ID : 224 (0xE0)
Format : MPEG Video
Format version : Version 2
Format profile : Main@Main
Format settings, BVOP : Yes
Format settings, Matrix : Default
Format settings, GOP : M=3, N=21
Duration : 23mn 9s
Bit rate mode : Variable
Bit rate : 2 041 Kbps
Nominal bit rate : 15.0 Mbps
Width : 704 pixels
Height : 576 pixels
Display aspect ratio : 4:3
Frame rate : 25.000 fps
Standard : PAL
Color space : YUV
Chroma subsampling : 4:2:0
Bit depth : 8 bits
Scan type : Progressive
Scan order : Top Field First
Compression mode : Lossy
Bits/(Pixel*Frame) : 0.201
Stream size : 338 MiB (90%)
Writing library : (c) 1998-2008 Womble Multimedia, Inc. / MPEG Video Wizard (08/2008) / Dec 31 2008
Audio
ID : 192 (0xC0)
Format : MPEG Audio
Format version : Version 1
Format profile : Layer 2
Mode extension : Intensity Stereo + MS Stereo
Duration : 23mn 9s
Bit rate mode : Constant
Bit rate : 192 Kbps
Channel(s) : 1 channel
Sampling rate : 48.0 KHz
Compression mode : Lossy
Video delay : -40ms
Stream size : 31.8 MiB (8%)

74 СЕРИЯ

75 СЕРИЯ

76 СЕРИЯ

77 СЕРИЯ

78 СЕРИЯ

79 СЕРИЯ

80 СЕРИЯ

Сюжетная линия серий

61 СЕРИЯ

Быков накричал на Варю из-за бардака в ординаторской. Лобанов затевает странный спор с чернокожим пациентом. А Романенко собрался заняться сексом с дочерью Быкова, Алисой. Но как отнесется к этому Быков?

62 СЕРИЯ

Кисегач хочет узнать, какой она начальник. Лобанов обнаружил, насколько он азартен. А Варя соврала Романенко и Алисе о своем парне. Теперь ей придется выкручиваться...

63 СЕРИЯ

Быков сожалеет о своем байкерском прошлом, Романенко предлагает Алисе жить вместе, а Лобанов получает предложение – продать свое тело за деньги...

64 СЕРИЯ

Лобанов встречает в больнице старого друга, но тот, похоже, сменил ориентацию. Любовные игры Быкова и Кисегач закончились порванной юбкой. Романенко страдает из-за отъезда Алисы. Кто приедет его утешать?

65 СЕРИЯ

66 СЕРИЯ

67 СЕРИЯ

68 СЕРИЯ

Романенко уехал домой и забыл про своего пациента, Люба и Лобанов не могут поделить "подарок" от больного, Варя и Фил возмущаются методами Быкова. Но их бунт будет подавлен...

69 СЕРИЯ

70 СЕРИЯ

71 СЕРИЯ

72 СЕРИЯ

73 СЕРИЯ

74 СЕРИЯ

75 СЕРИЯ

76 СЕРИЯ

77 СЕРИЯ

78 СЕРИЯ

79 СЕРИЯ

80 СЕРИЯ

Обложка DVD-BOX от пользователя timyrovecTM

Скачать.

Интересные факты о сериале

Инте́рны - российский комедийный телевизионный сериал, посвящённый работе интернов. Идея сериала принадлежит Вячеславу Дусмухаметову, одному из создателей «Универа». Дусмухаметов - выпускник Челябинской Государственной Медицинской Академии. Учёба в этом заведении, а также последующая практика, стали и источником шуток и ситуаций сериала.Премьера сериала состоялась 29 марта 2010 года на канале .СюжетСериал посвящён работе молодых неопытных интернов, постоянно попадающих в нелепые ситуации. Ими руководит заведующий терапевтическим отделением - доктор Быков, постоянно над ними подшучивающий. Помогают Быкову и наблюдают за приключениями интернов его друг, доктор-венеролог Купитман, и весёлая пухленькая медсестра Любовь Михайловна, а наводит порядок в больнице главврач Анастасия Кисегач. Сюжеты основаны на реальной врачебной практике.Телеканалом было заказано 60 серий. К 22 апреля было отснято порядка 30 из них.
По телеканалу ТНТ в период с 29 марта по 5 мая были показаны первые 20 серий сериала. С 6-го мая транслирует их повтор.
ПерсонажиАндрей Евгеньевич Быков (Иван Охлобыстин) - заведующий терапевтическим отделением и руководитель интернатуры четырёх интернов. Является опытным специалистом, в больнице на хорошем счету. В первых сериях не пьет, так как «завязал» с алкоголем, впоследствии «развязал». Предпочитает виски. Ироничен, циничен.
Семён Лобанов (Александр Ильин) - интерн. С первого курса работал на скорой помощи, благодаря чему считает себя уже достаточно опытным специалистом и его задевают указания на его неопытность. Всё время не высыпается. Женат на девушке по имени Ольга. Склонен к авантюрам, легко соглашается за деньги совершить незаконные действия для пациентов. Однако, крайне недальновиден, из-за чего все его авантюры оканчиваются крахом.
Борис Аркадьевич Левин (Дмитрий Шаракоис) - интерн с красным дипломом. Считает себя самым умным и знающим среди других интернов, тем не менее, теряется в экстренных случаях. Самый болезненный и впечатлительный. Часто оскорбляется из-за подколов Быкова и других интернов. У него роман с медсестрой Любовью Михайловной, который его одновременно и радует и пугает: ему нравится секс, но он опасается серьёзности намерений медсестры.
Глеб Викторович Романенко (Илья Глинников) - интерн. Сын главврача больницы, поэтому убежден, что интернатура для него должна проходить легко. Он меньше всех знает о медицине, но его голова отлично работает на причинение всяких пакостей другим интернам. У него роман с Варей Черноус (которая поначалу не принимала его ухаживания). Находится в постоянном конфликте с Быковым, который недоволен «мажорским» поведением интерна.
Варвара Николаевна Черноус (Кристина Асмус) - интерн. Правдоруб, не любит несправедливость. Старается помочь всем и каждому и от этого страдает сама. Жила без отца, с мамой, которая ей внушала, что мужчина в жизни женщины это не главное, поэтому она поначалу не принимает ухаживания Романенко.
Иван Натанович Купитман (Вадим Демчог) - доктор-венеролог. Крайне умный и крайне хитрый. Любитель и ценитель коньяка и женщин, опытный ловелас, поэтому многие ходят к нему за советом в личных вопросах. Коньяки принимает качестве благодарности от пациентов за лечение или хорошие результаты анализов, а также от коллег за конспирацию принимает. В результате имеет большую коллекцию коньяков у себя в кабинете. С удовольствием поддерживает Быкова, когда тот разыгрывает интернов.
Любовь Михайловна Скрябина (Светлана Пермякова) - старшая медсестра. Исполнительна, но как все женщины любвеобильна и болтлива. Обычно в курсе всех сплетен.
Анастасия Константиновна Кисегач (Светлана Камынина) - главный врач больницы. Решительная и расчётливая. Единственная слабость для неё - виски. Этой слабостью часто пользуется Быков, к которому Кисегач ещё со студенческих лет испытывает сложные чувства. Каждый раз, выпив с Быковым, она оказывается с ним в постели, после чего решительно заявляет «Это было в последний раз!».
Интересные фактыСъёмки проводятся в специально построенном для сериала павильоне на территории бывшего завода. Лекарства и медицинское оборудование в кадре - настоящие, оборудование взято в аренду или списанное.
Коньяк в кабинете доктора Купитмана - настоящий. Но во время съёмок актёр пьёт подкрашенный чай вместо алкоголя. Поэтому в некоторых сценах можно увидеть запотевшую от горячего чая рюмку.
Туалет, входящий в состав декораций больницы - бутафорский, к нему не подведена канализация. Поэтому рядом с ним висит предупреждение членам съёмочной группы, чтобы никто им не вздумал воспользоваться.
Дмитрий Шаракоис в сериале носит очки, принадлежавшие его покойному дедушке. Именно в них он пришёл на пробы и был в таком виде утверждён на роль интерна Левина. Но в очках линзы без диоптрий, так как у самого актёра прекрасное зрение.
НесоответствияНазвание отделений, в которых происходит действие, написано на стеклянных дверях. И, следовательно, если эпизод происходит в конкретном отделении, то отображаться оно должно с "изнанки". Однако, в некоторых сериях отображается так, словно эпизод происходит вне отделения.МузыкаМузыку для сериала составляли Mr.Bocha и Максим Тимошенко.
Часто в качестве музыкального оформления серий также используются классические произведения Моцарта, Чайковского, Вагнера, Вивальди и других композиторов.

Внимание! Раздача ведётся путём добавления новых серий

(1) остановить скачивание,
(2) удалить старый торрент у себя из клиента (старые серии удалять не надо),
(3) скачать новый торрент и запустить его у себя в клиенте вместо старого, при этом указать клиенту путь в старую папку куда и должно происходить скачивание новых серий.
Ваш клиент при этом должен произвести хеширование (проверку) старой папки (если не производит сам - помогите ему сделать это), и будет докачивать только те серии которых у вас ещё нет. Старые серии при этом не удаляются, а продолжают раздаваться!
Eсли вы уже удалили старые серии, то предотвратить повторную закачку старых серий можно, отжав галочку в соответсвующих местах при запуске нового торрента. По возможности, желательно не удалять старые серии как можно дольше чтобы релизёр не столько продолжал раздавать старые серии, а смог сконцентрироваться на новых.
Скачать сэмпл
Скачать

Скачать торрент!

Как скачивать? · Что такое торрент? · Рейтинг и ограничения

Сайт не распространяет и не хранит электронные версии произведений, а лишь предоставляет доступ к создаваемому пользователями каталогу ссылок на торрент-файлы, которые содержат только списки хеш-сумм

[Профиль] [ЛС]
Показать сообщения:    
Ответить на тему

Текущее время: Сегодня 02:05

Часовой пояс: GMT + 4



Вы не можете начинать темы
Вы не можете отвечать на сообщения
Вы не можете редактировать свои сообщения
Вы не можете удалять свои сообщения
Вы не можете голосовать в опросах
Вы не можете прикреплять файлы к сообщениям
Вы не можете скачивать файлы