Красная Бригада: Наследие / Красная фракция: Происхождение / Red Faction: Origins (Майкл Нанкин/ Michael Nankin) [2011, США, фантастика, HDTVRip-AVC] MVO (NewLine.TV) + original (eng) + eng subs

Ответить на тему
 
Автор Сообщение

user ®

Стаж: 7 лет 7 месяцев

Сообщений: 20008

Пост Пост: #1 от 10-Июл-2011 15:30

[Цитировать]

Красная Бригада: Наследие / Красная фракция: Происхождение / Red Faction: Origins Страна: США
Жанр: фантастика
Год выпуска: 2011
Продолжительность: 01:28:13
Перевод: Профессиональный (многоголосый закадровый)
Cубтитры: английские
Оригинальная аудиодорожка: английский
Режиссер: Майкл Нанкин/ Michael Nankin
В ролях: Роберт Патрик, Тэмзин Мерчант, Брайан Смит, Даниэль Николет, Кейт Вернон, Девон Грайе, Гарет Дэвид-Ллойд, Ана Мулвой-Тен, Сара Браун, Роджер Эштон-Гриффитс и др.
Описание: Прошло двадцать пять лет, с тех пор как Алек Мэйсон вел Марсианские Колонии к свободе… и 12 лет, с тех пор как мстительные враги убили его жену, похитили дочь Лиру и оставили сломленного героя с его горем. Для Джейка Мэйсона, единственного сына Алека и офицера войск Красной Бригады, весь мир вывернут наизнанку, когда он узнаёт, что теперь, спустя 12 лет после похищения, его сестра всё еще жива. Планета полна новым сильным врагом, и Джейк выходит на поиски, только чтобы узнать, что его потерянная сестра ─ одна из них… хладнокровный солдат, поклявшаяся уничтожить Красную Бригаду.
Доп. информация:
Перевод: нанокузня
Монтаж и работа со звуком: jugin, Alucard

Качество видео: HDTVRip-AVC
Формат видео: MKV
Видео: 1280Ч720 (1.78:1), 23.976 fps, 3930 kbps avg, 0,24 bit/pixel
Аудио: 48 kHz, Dolby Digital 5.1 @ 384 kbps AC-3
Аудио №2: 48 kHz, Dolby Digital 5.1 @ 384 kbps AC-3
Формат субтитров: prerendered (IDX+SUB) Доп. информация о субтитрах: ENG-Релиз: -

MediaInfo

General
Unique ID : 206048581916738287083925690512842758796 (0x9B03836D9B02470BAC7E680D4ABD1A8C)
Complete name : ...\red faction origins\red.faction.origins.hdtv.720p.rus.eng.novafilm.tv.mkv
Format : Matroska
File size : 2.42 GiB
Duration : 1h 28mn
Overall bit rate : 3 930 Kbps
Encoded date : UTC 2011-06-26 11:18:16
Writing application : mkvmerge v2.9.0 ('Moanin'') built on May 22 2009 17:46:31
Writing library : libebml v0.7.7 + libmatroska v0.8.1
Video
ID : 1
Format : AVC
Format/Info : Advanced Video Codec
Format profile : High@L4.1
Format settings, CABAC : Yes
Format settings, ReFrames : 5 frames
Codec ID : V_MPEG4/ISO/AVC
Duration : 1h 28mn
Bit rate : 3 160 Kbps
Width : 1 280 pixels
Height : 720 pixels
Display aspect ratio : 16:9
Frame rate : 23.976 fps
Color space : YUV
Chroma subsampling : 4:2:0
Bit depth : 8 bits
Scan type : Progressive
Bits/(Pixel*Frame) : 0.143
Stream size : 1.90 GiB (78%)
Writing library : x264 core 115 r1995 c1e60b9
Encoding settings : cabac=1 / ref=5 / deblock=1:0:0 / analyse=0x3:0x133 / me=umh / subme=8 / psy=1 / psy_rd=1.00:0.00 / mixed_ref=1 / me_range=16 / chroma_me=1 / trellis=1 / 8x8dct=1 / cqm=0 / deadzone=21,11 / fast_pskip=0 / chroma_qp_offset=-2 / threads=12 / sliced_threads=0 / nr=0 / decimate=1 / interlaced=0 / bluray_compat=0 / constrained_intra=0 / bframes=3 / b_pyramid=2 / b_adapt=1 / b_bias=0 / direct=1 / weightb=1 / open_gop=0 / weightp=2 / keyint=240 / keyint_min=24 / scenecut=40 / intra_refresh=0 / rc_lookahead=40 / rc=2pass / mbtree=1 / bitrate=3160 / ratetol=1.0 / qcomp=0.60 / qpmin=0 / qpmax=69 / qpstep=4 / cplxblur=20.0 / qblur=0.5 / ip_ratio=1.40 / aq=1:1.00
Language : English
Audio #1
ID : 2
Format : AC-3
Format/Info : Audio Coding 3
Mode extension : CM (complete main)
Codec ID : A_AC3
Duration : 1h 28mn
Bit rate mode : Constant
Bit rate : 384 Kbps
Channel(s) : 6 channels
Channel positions : Front: L C R, Side: L R, LFE
Sampling rate : 48.0 KHz
Bit depth : 16 bits
Compression mode : Lossy
Stream size : 242 MiB (10%)
Language : Russian
Audio #2
ID : 3
Format : AC-3
Format/Info : Audio Coding 3
Mode extension : CM (complete main)
Codec ID : A_AC3
Duration : 1h 28mn
Bit rate mode : Constant
Bit rate : 384 Kbps
Channel(s) : 6 channels
Channel positions : Front: L C R, Side: L R, LFE
Sampling rate : 48.0 KHz
Bit depth : 16 bits
Compression mode : Lossy
Stream size : 242 MiB (10%)
Language : English
Text
ID : 4
Format : UTF-8
Codec ID : S_TEXT/UTF8
Codec ID/Info : UTF-8 Plain Text
Language : English

Скриншот c названием фильма

Скриншоты

Скачать

Скачать торрент!

Как скачивать? · Что такое торрент? · Рейтинг и ограничения

Сайт не распространяет и не хранит электронные версии произведений, а лишь предоставляет доступ к создаваемому пользователями каталогу ссылок на торрент-файлы, которые содержат только списки хеш-сумм

[Профиль] [ЛС]

danil138

Стаж: 5 лет 10 месяцев

Сообщений: 1

Откуда: Самара

Пост Пост: #2 от 17-Июл-2011 17:25 (спустя 7 дней)

[Цитировать]

Фильм вполне приятен для просмотра. Легкий, ненапрягающий боевичек. Советую..
[Профиль] [ЛС]
Показать сообщения:    
Ответить на тему

Текущее время: Сегодня 08:03

Часовой пояс: GMT + 4



Вы не можете начинать темы
Вы не можете отвечать на сообщения
Вы не можете редактировать свои сообщения
Вы не можете удалять свои сообщения
Вы не можете голосовать в опросах
Вы не можете прикреплять файлы к сообщениям
Вы не можете скачивать файлы