Стальные двери / Iron Doors (Стивен Мануэль / Stephen Manuel) [2010, Германия, фэнтези, триллер, DVDRip] VO R1shpil

Ответить на тему
 
Автор Сообщение

user ®

Стаж: 7 лет 7 месяцев

Сообщений: 20008

Пост Пост: #1 от 10-Июл-2011 15:27

[Цитировать]

Стальные двери / Iron Doors
Страна: Германия
Жанр: фэнтези, триллер
Год выпуска: 2010
Продолжительность: 01:20:28
Перевод: Любительский (одноголосый)
Cубтитры: нет
Режиссер: Стивен Мануэль / Stephen Manuel
В ролях: Эксел Ведекинд, Рангано Нуони
Описание: Главный герой просыпается в замкнутом хранилище, не зная как он в нем очутился. Он должен попытаться выбраться из него, прежде чем он умрет от обезвоживания.
Релиз:

Качество видео: DVDRip
Формат видео: AVI
Видео кодек: XviD
Видео: 672x384 (16:9), 23.976, 1378 kb/s, 0.223 bits/pixel
Аудио: 48 Hz, АС3 Dolby Digital, 192 kb/s (96/ch, stereo)

MediaInfo

General
Complete name : *:\*\Iron Doors\Iron Doors.2010.DVDRip.XviD-R1shpil.avi
Format : AVI
Format/Info : Audio Video Interleave
File size : 909 MiB
Duration : 1h 20mn
Overall bit rate : 1 579 Kbps
Writing application : VirtualDubMod 1.5.10.2 (build 2540/release)
Writing library : VirtualDubMod build 2540/release
Video
ID : 0
Format : MPEG-4 Visual
Format profile : Advanced Simple@L5
Format settings, BVOP : Yes
Format settings, QPel : No
Format settings, GMC : No warppoints
Format settings, Matrix : Default (H.263)
Codec ID : XVID
Codec ID/Hint : XviD
Duration : 1h 20mn
Bit rate : 1 378 Kbps
Width : 672 pixels
Height : 384 pixels
Display aspect ratio : 16:9
Frame rate : 23.976 fps
Color space : YUV
Chroma subsampling : 4:2:0
Bit depth : 8 bits
Scan type : Progressive
Bits/(Pixel*Frame) : 0.223
Stream size : 793 MiB (87%)
Writing library : XviD 1.2.1 (UTC 2008-12-04)
Audio
ID : 1
Format : AC-3
Format/Info : Audio Coding 3
Mode extension : CM (complete main)
Codec ID : 2000
Duration : 1h 20mn
Bit rate mode : Constant
Bit rate : 192 Kbps
Channel(s) : 2 channels
Channel positions : Front: L R
Sampling rate : 48.0 KHz
Bit depth : 16 bits
Stream size : 111 MiB (12%)
Alignment : Split accross interleaves
Interleave, duration : 42 ms (1.00 video frame)
Interleave, preload duration : 500 ms

Скриншот c названием фильма

Скриншоты

Рецензия для тех, кто Speaks English

IRON DOORS is a low budget film that is clearly based in movies like SAW or CUBE. In fact it really follows their concept but it also provides some new and interesting ideas which I appreciated, I must say! The plot is very straight to follow as it begins with a man closed in a room, waking up and not knowing how he got there… So far nothing new, we all have seen it in CUBE! Anyway, at first he thinks it's just a joke from his friends, but soon he realizes it's not a joke! The novelties in the plot start when he can make a large hole in the wall and pass to another room! There he finds a black woman that is in the same situation than him, but she just… can't speak English! The movie turns funnier with this character. They make a nice couple! The plot doesn't develop a lot more until the end, where it has a nice disclosure! I appreciated this movie. It's not too original but it ends being entertaining. MIDB(c)
Скачать

Скачать торрент!

Как скачивать? · Что такое торрент? · Рейтинг и ограничения

Сайт не распространяет и не хранит электронные версии произведений, а лишь предоставляет доступ к создаваемому пользователями каталогу ссылок на торрент-файлы, которые содержат только списки хеш-сумм

[Профиль] [ЛС]
Показать сообщения:    
Ответить на тему

Текущее время: Сегодня 00:18

Часовой пояс: GMT + 4



Вы не можете начинать темы
Вы не можете отвечать на сообщения
Вы не можете редактировать свои сообщения
Вы не можете удалять свои сообщения
Вы не можете голосовать в опросах
Вы не можете прикреплять файлы к сообщениям
Вы не можете скачивать файлы