Беседа Михаэля Лайтмана с Ксенией Стриж [2008 г., телемост, документальный, DVDRip]

Ответить на тему
 
Автор Сообщение

aravut ®

Пол:

Стаж: 11 лет

Сообщений: 23

Откуда: Красноярск

Пост Пост: #1 от 08-Июл-2011 19:27

[Цитировать]

Беседа Михаэля Лайтмана с Ксенией Стриж
Год выпуска: 2008
Жанр: телемост, документальный
Страна: Россия - Израиль
Режиссер: Семён Винокур
В ролях: Михаэль Лайтман и телеведущая Ксения Стриж
Описание: Согласно известной народной шутке, "мужчина должен посадить дерево, построить дом и вырастить сына, а женщина - срубить дерево, поджечь дом и родить дочь."
Что же всё-таки должен оставить после себя человек?
Откуда в современном обществе мода на феминизм?
Кто виноват в том, что женщины не хотят иметь семью, детей?
С этих вопросов начинается первая часть беседы.
Вторая часть беседы расскажет о науке каббала и повседневной жизни каббалиста.
Знаем ли мы на самом деле, что это за люди?
Личная оценка: 10 из 10
Продолжительность: 01:11:41
Качество видео: DVDRip
Видео: кодек: DivX, контейнер: MPEG-4, размер кадра: 704x416, битрейт: 1864 кб/с
Аудио: язык: русский, перевод: (оригинал), аудиокодек: MP3, битрейт аудио: 128кб/с

Скриншоты:

MediaInfo

Общее
Полное имя : Беседа Ксении Стриж и Михаэля Лайтмана\Strizh-Lajtman_telemost-1_телемост_с_Ксенией-Стриж.avi
Формат : AVI
Формат/Информация : Audio Video Interleave
Размер файла : 457 Мбайт
Продолжительность : 31 м.
Общий поток : 2001 Кбит/сек
Программа кодирования : VirtualDubMod 1.5.10.2 (build 2540/release)
Библиотека кодирования : VirtualDubMod build 2540/release
Видео
Идентификатор : 0
Формат : MPEG-4 Visual
Параметр BVOP формата : Нет
Параметр QPel формата : Нет
Параметр GMC формата : Без точки перехода
Параметр матрицы формата : Default (H.263)
Идентификатор кодека : DX50
Идентификатор кодека/Подсказка : DivX 5
Продолжительность : 31 м.
Битрейт : 1864 Кбит/сек
Ширина : 704 пикс.
Высота : 416 пикс.
Соотношение сторон : 1,692
Частота кадров : 25,000 кадр/сек
Цветовое пространство : YUV
Подвыборка цветности : 4:2:0
Битовая глубина : 8 бит
Тип развёртки : Прогрессивная
Метод сжатия : С потерями
Бит/(Пиксели*Кадры) : 0.255
Размер потока : 426 Мбайт (93%)
Библиотека кодирования : DivX 5.2.1 (WaffleDay) (UTC 2004-09-08)
Аудио
Идентификатор : 1
Формат : MPEG Audio
Версия формата : Version 1
Профиль формата : Layer 3
Режим : Joint stereo
Расширение режима : MS Stereo
Идентификатор кодека : 55
Идентификатор кодека/Подсказка : MP3
Продолжительность : 31 м.
Вид битрейта : Постоянный
Битрейт : 128 Кбит/сек
Каналы : 2 канала
Частота : 48,0 КГц
Метод сжатия : С потерями
Размер потока : 29,2 Мбайт (6%)
Выравнивание : Соединение по промежуткам
Продолжительность промежутка : 40 мс. (1,00 видеокадр)
Время предзагрузки промежутка : 504 ms
[Профиль] [ЛС]

Пост Пост: #2 от 06-Май-2012 23:43 (спустя 9 месяцев 29 дней)

Топик был перенесен из форума Другие в форум АРХИВ

admin
 
Показать сообщения:    
Ответить на тему

Текущее время: Сегодня 16:41

Часовой пояс: GMT + 4



Вы не можете начинать темы
Вы не можете отвечать на сообщения
Вы не можете редактировать свои сообщения
Вы не можете удалять свои сообщения
Вы не можете голосовать в опросах
Вы не можете прикреплять файлы к сообщениям
Вы не можете скачивать файлы