Как приручить медведя / Den kæmpestore bjørn / The Great Bear (Эсбен Тофт Якобсен / Esben Toft Jacobsen) [2011, мультфильм, фэнтези, драма, приключения, семейный, DVDRip] MVO [Лицензия] + original Dan

Ответить на тему
 
Автор Сообщение

Temiks ®

Стаж: 8 лет 2 месяца

Сообщений: 133

Откуда: Украина

Пост Пост: #1 от 22-Июн-2011 21:46

[Цитировать]

Как приручить медведя / Den kжmpestore bjшrn / The Great Bear
-Страна: Дания
Жанр: мультфильм, фэнтези, драма, приключения, семейный
Продолжительность: 01:13:15
Год выпуска: 2011
Перевод: Профессиональный (многоголосый закадровый) [Лицензия]
Русские субтитры: нет
Оригинальная аудио дорожка: датский-Режиссёр: Эсбен Тофт Якобсен / Esben Toft Jacobsen-Роли озвучивали: Маркус Рюгорд Флемминг Квист Мюллер и др.-Описание: Джонатану 11 лет. Каждые летние каникулы он проводит у дедушки, который живет на краю дремучего леса. В этом году компанию ему составит младшая сестра София. За этой непоседой так сложно уследить! Но однажды сестренку похищает гигантский 1000-летний медведь. Джонатан отправляется в самое сердце леса, и хотя у него самого душа уходит в пятки, мальчик намерен вырвать Софию из медвежьих лап. А может быть в зеленой чаще есть кто-то пострашнее косолапого великана?- -Качество: DVDRip [DVD R5]
Формат: AVI
Видео: 720x400 (2.37:1), 25 fps, XviD MPEG-4 ~1754 kbps avg, 0.244 bit/pixel
Аудио #1: 48 kHz, AC3 Dolby Digital, 3/2 (L,C,R,l,r) + LFE ch, ~448.00 kbps avg
Аудио #2: 48 kHz, AC3 Dolby Digital, 3/2 (L,C,R,l,r) + LFE ch, ~448.00 kbps avg
Субтитры: отсутствуют
Скачать: Сэмпл-

Подробные технические данные

GeneralComplete name : Kak.priruchit.medvedja.2011.P.DVDRip.1400MB.aviFormat : AVIFormat/Info : Audio Video InterleaveFile size : 1.36 GiBDuration : 1h 13mnOverall bit rate : 2 666 KbpsWriting application : VirtualDubMod 1.5.4.1 (build 2178/release)Writing library : VirtualDubMod build 2178/release
VideoID : 0Format : MPEG-4 VisualFormat profile : Advanced Simple@L5Format settings, BVOP : YesFormat settings, QPel : NoFormat settings, GMC : No warppointsFormat settings, Matrix : CustomCodec ID : XVIDCodec ID/Hint : XviDDuration : 1h 13mnBit rate : 1 756 KbpsWidth : 720 pixelsHeight : 400 pixelsDisplay aspect ratio : 16:9Frame rate : 25.000 fpsColor space : YUVChroma subsampling : 4:2:0Bit depth : 8 bitsScan type : ProgressiveCompression mode : LossyBits/(Pixel*Frame) : 0.244Stream size : 920 MiB (66%)Writing library : XviD 58
Audio #1ID : 1Format : AC-3Format/Info : Audio Coding 3Mode extension : CM (complete main)Codec ID : 2000Duration : 1h 13mnBit rate mode : ConstantBit rate : 448 KbpsChannel(s) : 6 channelsChannel positions : Front: L C R, Side: L R, LFESampling rate : 48.0 KHzBit depth : 16 bitsCompression mode : LossyDelay relative to video : 394msStream size : 235 MiB (17%)Alignment : Split accross interleavesInterleave, duration : 40 ms (1.00 video frame)Interleave, preload duration : 500 ms
Audio #2ID : 2Format : AC-3Format/Info : Audio Coding 3Mode extension : CM (complete main)Codec ID : 2000Duration : 1h 13mnBit rate mode : ConstantBit rate : 448 KbpsChannel(s) : 6 channelsChannel positions : Front: L C R, Side: L R, LFESampling rate : 48.0 KHzBit depth : 16 bitsCompression mode : LossyDelay relative to video : 394msStream size : 235 MiB (17%)Alignment : Split accross interleavesInterleave, duration : 40 ms (1.00 video frame)Interleave, preload duration : 500 ms

Скриншоты

Скачать

Скачать торрент!

Как скачивать? · Что такое торрент? · Рейтинг и ограничения

Сайт не распространяет и не хранит электронные версии произведений, а лишь предоставляет доступ к создаваемому пользователями каталогу ссылок на торрент-файлы, которые содержат только списки хеш-сумм

загрузка...
[Профиль] [ЛС]
Показать сообщения:    
Ответить на тему

Текущее время: Сегодня 19:25

Часовой пояс: GMT + 4



Вы не можете начинать темы
Вы не можете отвечать на сообщения
Вы не можете редактировать свои сообщения
Вы не можете удалять свои сообщения
Вы не можете голосовать в опросах
Вы не можете прикреплять файлы к сообщениям
Вы не можете скачивать файлы