Пол: Секретный материальчик / Paul (Грег Моттола / Greg Mottola) [2011, США, Великобритания, фантастика, комедия, приключения, BDRip] Theatrical Cut, DUB R5 + Sub (rus - forced)

Ответить на тему
 
Автор Сообщение

user ®

Стаж: 7 лет 7 месяцев

Сообщений: 20008

Пост Пост: #1 от 20-Июн-2011 21:07

[Цитировать]

Пол: Секретный материальчик / PaulТеатральная версия / Theatrical Cut
Год выпуска: 2011
Страна: США, Великобритания
Киностудия: Big Talk Productions, Пифагор, Relativity Media
Жанр: фантастика, комедия, приключения
Продолжительность: 01:43:40
Перевод: Профессиональный (дублированный)
Cубтитры: Русский - форсированные
Оригинальная аудиодорожка: нет
Режиссер: Грег Моттола / Greg Mottola
В ролях: Саймон Пегг, Ник Фрост, Сет Роген, Джейн Линч, Сигурни Уивер, Джейсон Бейтман, Кристен Уиг, Билл Хэйдер, Блайт Даннер, Джефри Тэмбор
Описание: Два английских гика отправляются на одно из самых значимых фанатских событий в области фантастики — конвент ComicCon в Америке. По пути, неподалёку от известной Зоны 51, они встречают сбежавшего инопланетянина по имени Пол, который просит помочь ему добраться домой. Пытаясь спастись от правительственных агентов, герои случайно похищают женщину и натыкаются на обкуренную свидетельницу аварийной посадки Пола на Землю.

Бюджет: $40 000 000
Тип релиза: BDRip
Контейнер: AVI
Видео: 720x304 (2.35:1), 23.976 fps, XviD MPEG-4 ~1619 kbps avg, 0.308 bit/pixel
Аудио: 48 kHz, AC3 6 ch, 384.00 kbps Constant
Формат субтитров: SoftSub (srt)

MediaInfo

Общее
Полное имя : Pol.Sekretnij.materialchik.2011.D.DVDRip.avi
Формат : AVI
Формат/Информация : Audio Video Interleave
Размер файла : 1,46 Гбайт
Продолжительность : 1 ч. 43 м.
Общий поток : 2012 Кбит/сек
Программа кодирования : VirtualDubMod 1.5.10.3 (build 2550/release)
Библиотека кодирования : VirtualDubMod build 2550/release
Видео
Идентификатор : 0
Формат : MPEG-4 Visual
Профиль формата : Advanced Simple@L5
Параметр BVOP формата : 1
Параметр QPel формата : Нет
Параметр GMC формата : Без точки перехода
Параметр матрицы формата : Выборочная
Идентификатор кодека : XVID
Идентификатор кодека/Подсказка : XviD
Продолжительность : 1 ч. 43 м.
Битрейт : 1619 Кбит/сек
Ширина : 720 пикс.
Высота : 304 пикс.
Соотношение сторон : 2,35:1
Частота кадров : 23,976 кадр/сек
Цветовое пространство : YUV
Подвыборка цветности : 4:2:0
Битовая глубина : 8 бит
Тип развёртки : Прогрессивная
Метод сжатия : С потерями
Бит/(Пиксели*Кадры) : 0.308
Размер потока : 1,17 Гбайт (80%)
Библиотека кодирования : XviD 1.2.1 (UTC 2008-12-04)
Аудио
Идентификатор : 1
Формат : AC-3
Формат/Информация : Audio Coding 3
Расширение режима : CM (complete main)
Идентификатор кодека : 2000
Продолжительность : 1 ч. 43 м.
Вид битрейта : Постоянный
Битрейт : 384 Кбит/сек
Каналы : 6 каналов
Расположение каналов : Front: L C R, Side: L R, LFE
Частота : 48,0 КГц
Битовая глубина : 16 бит
Метод сжатия : С потерями
Размер потока : 285 Мбайт (19%)
Выравнивание : Разделение по промежуткам
Продолжительность промежутка : 42 мс. (1,00 видеокадр)
Время предзагрузки промежутка : 500 ms

Скриншот c названием фильма

Скриншоты

Скачать

Скачать торрент!

Как скачивать? · Что такое торрент? · Рейтинг и ограничения

Сайт не распространяет и не хранит электронные версии произведений, а лишь предоставляет доступ к создаваемому пользователями каталогу ссылок на торрент-файлы, которые содержат только списки хеш-сумм

[Профиль] [ЛС]

pokpok

Стаж: 5 лет 6 месяцев

Сообщений: 13

Откуда: Вологда

Пост Пост: #2 от 29-Июн-2011 09:25 (спустя 8 дней)

[Цитировать]

как понять театральная версия?
[Профиль] [ЛС]

Shuravi79

Стаж: 5 лет 9 месяцев

Сообщений: 6

Пост Пост: #3 от 29-Июн-2011 12:51 (спустя 3 часа)

[Цитировать]

как понять театральная версия?
Это значит, то что шло в кинотеатрах. НЕрежисерская версия.
[Профиль] [ЛС]

xbink

Стаж: 5 лет 9 месяцев

Сообщений: 5

Пост Пост: #4 от 29-Июн-2011 18:01 (спустя 5 часов)

[Цитировать]

Павел Воля неплохо озвучил:)
[Профиль] [ЛС]

Big_Gig

Стаж: 6 лет

Сообщений: 3

Пост Пост: #5 от 29-Июн-2011 23:15 (спустя 5 часов)

[Цитировать]

Позитивный фильм. Стоит просмотра
[Профиль] [ЛС]

maks.klim

Стаж: 5 лет 10 месяцев

Сообщений: 4

Откуда: Orenburg

Пост Пост: #6 от 05-Июл-2011 22:48 (спустя 5 дней)

[Цитировать]

Отличный фильм)
[Профиль] [ЛС]
Показать сообщения:    
Ответить на тему

Текущее время: Сегодня 08:06

Часовой пояс: GMT + 4



Вы не можете начинать темы
Вы не можете отвечать на сообщения
Вы не можете редактировать свои сообщения
Вы не можете удалять свои сообщения
Вы не можете голосовать в опросах
Вы не можете прикреплять файлы к сообщениям
Вы не можете скачивать файлы