Больше чем секс / No Strings Attached (Айвен Райтман / Ivan Reitman) [2011, США, мелодрама, комедия, BDRip] DUB R5

Ответить на тему
 
Автор Сообщение

user ®

Стаж: 7 лет 7 месяцев

Сообщений: 20008

Пост Пост: #1 от 20-Июн-2011 21:05

[Цитировать]

Больше чем секс / No Strings Attached«Сможет ли бабник влюбиться в красотку?»
Год выпуска: 2011
Страна: США
Киностудия: Cold Spring Pictures, Handsomecharlie Films, Katalyst Films
Жанр: мелодрама, комедия
Продолжительность: 01:47:58
Перевод: Профессиональный (дублированный)
Cубтитры: нет
Оригинальная аудиодорожка: нет
Режиссер: Айвен Райтман / Ivan Reitman
В ролях: Натали Портман, Эштон Катчер, Кевин Клайн, Кэри Элвис, Грета Гервиг, Лэйк Белл, Оливия Тирлби, Лудакрис, Джэйк М. Джонсон, Мелинда Калинг...
Описание: Романтическая комедия о том, как легко мужчины и женщины вступают в сексуальную связь, но как трудно им достичь эмоциональной близости. Главных героев связывают только сексуальные отношения, но со временем они понимают, что на смену физиологическим инстинктам приходит нечто большее.

Бюджет: $25 000 000
Тип релиза: BDRip
Контейнер: AVI
Видео: 720x304 (2.35:1), 23.976 fps, XviD MPEG-4 ~1477 kbps avg, 0.281 bit/pixel
Аудио: 48 kHz, AC3 6 ch, 448.00 kbps Constant

MediaInfo

Общее
Полное имя : Bolshe.chem.seks.2011.D.BDRip.1.46GB.avi
Формат : AVI
Формат/Информация : Audio Video Interleave
Размер файла : 1,46 Гбайт
Продолжительность : 1 ч. 47 м.
Общий поток : 1934 Кбит/сек
Программа кодирования : VirtualDubMod 1.5.10.3 (build 2550/release)
Библиотека кодирования : VirtualDubMod build 2550/release
Видео
Идентификатор : 0
Формат : MPEG-4 Visual
Профиль формата : Advanced Simple@L5
Параметр BVOP формата : 1
Параметр QPel формата : Нет
Параметр GMC формата : Без точки перехода
Параметр матрицы формата : Выборочная
Идентификатор кодека : XVID
Идентификатор кодека/Подсказка : XviD
Продолжительность : 1 ч. 47 м.
Битрейт : 1477 Кбит/сек
Ширина : 720 пикс.
Высота : 304 пикс.
Соотношение сторон : 2,35:1
Частота кадров : 23,976 кадр/сек
Цветовое пространство : YUV
Подвыборка цветности : 4:2:0
Битовая глубина : 8 бит
Тип развёртки : Прогрессивная
Метод сжатия : С потерями
Бит/(Пиксели*Кадры) : 0.281
Размер потока : 1,11 Гбайт (76%)
Библиотека кодирования : XviD 1.2.1 (UTC 2008-12-04)
Аудио
Идентификатор : 1
Формат : AC-3
Формат/Информация : Audio Coding 3
Расширение режима : CM (complete main)
Идентификатор кодека : 2000
Продолжительность : 1 ч. 47 м.
Вид битрейта : Постоянный
Битрейт : 448 Кбит/сек
Каналы : 6 каналов
Расположение каналов : Front: L C R, Side: L R, LFE
Частота : 48,0 КГц
Битовая глубина : 16 бит
Метод сжатия : С потерями
Размер потока : 346 Мбайт (23%)
Выравнивание : Разделение по промежуткам
Продолжительность промежутка : 42 мс. (1,00 видеокадр)
Время предзагрузки промежутка : 500 ms

Скриншот c названием фильма

Скриншоты

Скачать

Скачать торрент!

Как скачивать? · Что такое торрент? · Рейтинг и ограничения

Сайт не распространяет и не хранит электронные версии произведений, а лишь предоставляет доступ к создаваемому пользователями каталогу ссылок на торрент-файлы, которые содержат только списки хеш-сумм

[Профиль] [ЛС]

pokpok

Стаж: 5 лет 6 месяцев

Сообщений: 13

Откуда: Вологда

Пост Пост: #2 от 29-Июн-2011 09:24 (спустя 8 дней)

[Цитировать]

ниче так фильм Смотреть можно
[Профиль] [ЛС]

xbink

Стаж: 5 лет 9 месяцев

Сообщений: 5

Пост Пост: #3 от 04-Июл-2011 12:44 (спустя 5 дней)

[Цитировать]

Как Портман могла сняться в таком фильме?Средний фильм, штамп на штампе увы:)
[Профиль] [ЛС]

admin

Пол:

Стаж: 5 лет

Сообщений: 799

Пост Пост: #4 от 04-Июл-2011 13:06 (спустя 22 минуты)

[Цитировать]

Как Портман могла сняться в таком фильме?Средний фильм, штамп на штампе увы:)
Все современное кино строится на штампах.
[Профиль] [ЛС]
Показать сообщения:    
Ответить на тему

Текущее время: Сегодня 23:50

Часовой пояс: GMT + 4



Вы не можете начинать темы
Вы не можете отвечать на сообщения
Вы не можете редактировать свои сообщения
Вы не можете удалять свои сообщения
Вы не можете голосовать в опросах
Вы не можете прикреплять файлы к сообщениям
Вы не можете скачивать файлы