All inclusive, или Всё включено (Эдуард Радзюкевич) [2011, комедия, TeleSynch]

Ответить на тему
 
Автор Сообщение

user ®

Стаж: 7 лет 7 месяцев

Сообщений: 20008

Пост Пост: #1 от 14-Июн-2011 10:45

[Цитировать]

All inclusive, или Всё включено
Жанр: комедия
Год выпуска: 2011
Продолжительность: 01:31:29
Режиссёр: Эдуард Радзюкевич
В ролях: Михаил Беспалов, Федор Добронравов, Роман Мадянов, Эдуард Радзюкевич, Андрей Кайков, Григорий Сиятвинда, Нонна Гришаева, Анна Ардова, Марина Александрова, Мирослава Карпович
Описание: Жизнь Андрея — владельца дорогой и востребованной ветеринарной клиники для домашних животных с Рублевки — определенно удалась. Мало того, он не обделен вниманием и прекрасных хозяек милых зверюшек. Но страстная ночь с женой олигарха Эвелиной меняет все: ревнивый муж Эдик очень доходчиво объясняет, что изменит сладкую жизнь успешного бизнесмена. Единственный выход — это побег из страны. И Андрей уезжает в Турцию по программе «Все включено», не подозревая, что в нее включено намного больше, чем кажется на первый взгляд. За ним по пятам следует австрийский киллер Рудольф, а солнечные пляжи таят самое главное испытание в жизни…
Качество видео: TeleSynch
Формат видео: AVI
Видео: 720x368, 25.000 fps, XviD MPEG-4 ~1939 kbps avg, 0.293 bit/pixel
Аудио: 48 kHz, AC3 Dolby Digital, 2/0 (L,R) ch, ~192.00 kbps
----------------------------------------------

----------------------------------------------
Релиз от:

Подробные технические данные

GeneralFormat : AVIFormat/Info : Audio Video InterleaveFile size : 1.37 GiBDuration : 1h 31mnOverall bit rate : 2 140 KbpsWriting application : VirtualDubMod 1.5.4.1 (build 2178/release)Writing library : VirtualDubMod build 2178/release
VideoID : 0Format : MPEG-4 VisualFormat profile : Advanced Simple@L5Format settings, BVOP : YesFormat settings, QPel : NoFormat settings, GMC : No warppointsFormat settings, Matrix : CustomCodec ID : XVIDCodec ID/Hint : XviDDuration : 1h 31mnBit rate : 1 939 KbpsWidth : 720 pixelsHeight : 368 pixelsDisplay aspect ratio : 1.957Frame rate : 25.000 fpsColor space : YUVChroma subsampling : 4:2:0Bit depth : 8 bitsScan type : ProgressiveBits/(Pixel*Frame) : 0.293Stream size : 1.24 GiB (91%)Writing library : XviD 58
AudioID : 1Format : AC-3Format/Info : Audio Coding 3Mode extension : CM (complete main)Codec ID : 2000Duration : 1h 31mnBit rate mode : ConstantBit rate : 192 KbpsChannel(s) : 2 channelsChannel positions : Front: L RSampling rate : 48.0 KHzBit depth : 16 bitsStream size : 126 MiB (9%)Alignment : Split accross interleavesInterleave, duration : 40 ms (1.00 video frame)Interleave, preload duration : 500 ms

Скриншоты

Скачать

Скачать торрент!

Как скачивать? · Что такое торрент? · Рейтинг и ограничения

Сайт не распространяет и не хранит электронные версии произведений, а лишь предоставляет доступ к создаваемому пользователями каталогу ссылок на торрент-файлы, которые содержат только списки хеш-сумм

[Профиль] [ЛС]
Показать сообщения:    
Ответить на тему

Текущее время: Сегодня 02:08

Часовой пояс: GMT + 4



Вы не можете начинать темы
Вы не можете отвечать на сообщения
Вы не можете редактировать свои сообщения
Вы не можете удалять свои сообщения
Вы не можете голосовать в опросах
Вы не можете прикреплять файлы к сообщениям
Вы не можете скачивать файлы