Линкольн для адвоката / The Lincoln Lawyer (Брэд Фурман / Brad Furman) [2011, триллер, драма, криминал, BDRip-AVC] DUB

Ответить на тему
 
Автор Сообщение

user ®

Стаж: 7 лет 7 месяцев

Сообщений: 20008

Пост Пост: #1 от 14-Июн-2011 10:44

[Цитировать]

Линкольн для адвоката / The Lincoln Lawyer

Страна: США
Жанр: триллер, драма, криминал
Год выпуска: 2011
Продолжительность: 01:58:19-Перевод: Профессиональный (дублированный) Лицензия
Cубтитры нет
Режиссер: Брэд Фурман / Brad Furman-В ролях: Мэттью МакКонахи, Мариса Томей, Райан Филипп, Уильям Х. Мэйси, Джош Лукас, Джон Легуизамо, Майкл Пенья, Боб Гантон, Фрэнсис Фишер, Брайан Крэнстон-Описание: Адвокат Микки Хэллер, который практически живет в своем «Линкольне» и все бумаги держит на заднем сидении автомобиля, большую часть карьеры занимался тем, что защищал мелких сошек, но вот ему подвернулось дело всей жизни: его нанимает известный плэйбой из Беверли-Хиллз, которого обвиняют в убийстве. Неожиданный шанс оборачивается для Хэллера игрой на выживание.- -Качество видео: BDRip-AVC [исходник: LINKOLN_LAWYER/Blu-Ray]
Формат видео: MKV-Видео: AVC; 1024x428 (2.40:1); 24.000 fps; 1311 kbps
Аудио: AC3 Dolby Digital; 48 KHz; 448 kbps; 3/2 (L,C,R,l,r) LFE ch-СЭМПЛ- -

MediaInfo/log

log

---[NoImage] avs [info]: 1024x428p 1:1 @ 24/1 fps (cfr)
---[NoImage] x264 [info]: using SAR=1/1
---[NoImage] x264 [info]: using cpu capabilities: MMX2 SSE2Fast SSSE3 FastShuffle SSE4.2
---[NoImage] x264 [info]: profile High, level 4.1
---[NoImage]
---[NoImage] x264 [info]: frame I:1243 Avg QP:18.47 size: 37991 PSNR Mean Y:45.61 U:49.39 V:48.98 Avg:46.46 Global:45.27
---[NoImage] x264 [info]: frame P:41553 Avg QP:21.25 size: 12354 PSNR Mean Y:44.05 U:48.04 V:48.10 Avg:44.88 Global:43.06
---[NoImage] x264 [info]: frame B:127601 Avg QP:21.90 size: 4723 PSNR Mean Y:43.48 U:47.75 V:47.61 Avg:44.41 Global:43.05
---[NoImage] x264 [info]: consecutive B-frames: 2.9% 3.7% 12.3% 28.1% 18.7% 27.8% 3.9% 1.0% 1.7%
---[NoImage] x264 [info]: mb I I16..4: 17.2% 64.1% 18.7%
---[NoImage] x264 [info]: mb P I16..4: 4.5% 10.7% 1.6% P16..4: 48.9% 15.8% 2.7% 0.3% 0.2% skip:15.3%
---[NoImage] x264 [info]: mb B I16..4: 0.4% 0.6% 0.1% B16..8: 38.8% 8.5% 1.9% direct: 5.0% skip:44.9% L0:41.7% L1:47.1% BI:11.2%
---[NoImage] x264 [info]: 8x8 transform intra:62.8% inter:66.3%
---[NoImage] x264 [info]: direct mvs spatial:96.4% temporal:3.6%
---[NoImage] x264 [info]: coded y,uvDC,uvAC intra: 61.3% 69.9% 46.9% inter: 16.6% 20.6% 2.3%
---[NoImage] x264 [info]: i16 v,h,dc,p: 55% 18% 7% 20%
---[NoImage] x264 [info]: i8 v,h,dc,ddl,ddr,vr,hd,vl,hu: 13% 10% 11% 8% 12% 12% 12% 11% 12%
---[NoImage] x264 [info]: i4 v,h,dc,ddl,ddr,vr,hd,vl,hu: 16% 13% 7% 8% 13% 12% 11% 9% 11%
---[NoImage] x264 [info]: i8c dc,h,v,p: 44% 22% 20% 14%
---[NoImage] x264 [info]: Weighted P-Frames: Y:2.0% UV:1.0%
---[NoImage] x264 [info]: ref P L0: 48.7% 12.2% 17.7% 5.9% 4.8% 3.5% 3.1% 1.8% 1.9% 0.3% 0.0%
---[NoImage] x264 [info]: ref B L0: 77.1% 11.3% 5.1% 2.5% 1.7% 1.3% 0.8% 0.3%
---[NoImage] x264 [info]: ref B L1: 93.3% 6.7%
---[NoImage] x264 [info]: SSIM Mean Y:0.9836923 (17.876db)
---[NoImage] x264 [info]: PSNR Mean Y:43.636 U:47.829 V:47.741 Avg:44.541 Global:43.064 kb/s:1310.76
General
Unique ID : 203401031687763321109488022711720323375 (0x99059D1FAE79DB42BF3AF515B59DA92F)
Complete name : I:\Other\Linkoln.dlja.advokata.2011.DUB.BDRip.x264_Vaippp.mkv
Format : Matroska
File size : 1.46 GiB
Duration : 1h 58mn
Overall bit rate : 1 760 Kbps
Movie name : Linkoln dlja advokata / 2011 / Release by Vaippp / СПАМ Team
Encoded date : UTC 2011-05-07 21:17:48
Writing application : mkvmerge v4.7.0 ('Just Like You Imagined') сборка от Apr 21 2011 01:13:14
Writing library : libebml v1.2.0 libmatroska v1.1.0
Video
ID : 1
Format : AVC
Format/Info : Advanced Video Codec
Format profile : High@L4.1
Format settings, CABAC : Yes
Format settings, ReFrames : 9 frames
Codec ID : V_MPEG4/ISO/AVC
Duration : 1h 58mn
Bit rate : 1 311 Kbps
Width : 1 024 pixels
Height : 428 pixels
Display aspect ratio : 2.35:1
Frame rate : 24.000 fps
Color space : YUV
Chroma subsampling : 4:2:0
Bit depth : 8 bits
Scan type : Progressive
Bits/(Pixel*Frame) : 0.125
Stream size : 1.06 GiB (73%)
Title : BDRip by Vaippp
Writing library : x264 core 114 r1913 5fd3dce
Encoding settings : cabac=1 / ref=9 / deblock=1:-2:-1 / analyse=0x3:0x133 / me=umh / subme=9 / psy=1 / psy_rd=1.00:0.15 / mixed_ref=1 / me_range=32 / chroma_me=1 / trellis=2 / 8x8dct=1 / cqm=0 / deadzone=21,11 / fast_pskip=0 / chroma_qp_offset=-3 / threads=12 / sliced_threads=0 / nr=0 / decimate=1 / interlaced=0 / constrained_intra=0 / bframes=8 / b_pyramid=2 / b_adapt=2 / b_bias=0 / direct=3 / weightb=1 / open_gop=0 / weightp=2 / keyint=250 / keyint_min=23 / scenecut=40 / intra_refresh=0 / rc_lookahead=40 / rc=2pass / mbtree=0 / bitrate=1311 / ratetol=1.0 / qcomp=0.70 / qpmin=10 / qpmax=51 / qpstep=4 / cplxblur=20.0 / qblur=0.5 / vbv_maxrate=50000 / vbv_bufsize=62500 / nal_hrd=none / ip_ratio=1.40 / pb_ratio=1.30 / aq=1:1.00 / zones=163137,170396,q=35
Language : English
Audio
ID : 2
Format : AC-3
Format/Info : Audio Coding 3
Mode extension : CM (complete main)
Codec ID : A_AC3
Duration : 1h 58mn
Bit rate mode : Constant
Bit rate : 448 Kbps
Channel(s) : 6 channels
Channel positions : Front: L C R, Side: L R, LFE
Sampling rate : 48.0 KHz
Bit depth : 16 bits
Compression mode : Lossy
Stream size : 379 MiB (25%)
Title : DUB
Language : Russian

Скриншоты

Скачать

Скачать торрент!

Как скачивать? · Что такое торрент? · Рейтинг и ограничения

Сайт не распространяет и не хранит электронные версии произведений, а лишь предоставляет доступ к создаваемому пользователями каталогу ссылок на торрент-файлы, которые содержат только списки хеш-сумм

[Профиль] [ЛС]
Показать сообщения:    
Ответить на тему

Текущее время: Сегодня 21:25

Часовой пояс: GMT + 4



Вы не можете начинать темы
Вы не можете отвечать на сообщения
Вы не можете редактировать свои сообщения
Вы не можете удалять свои сообщения
Вы не можете голосовать в опросах
Вы не можете прикреплять файлы к сообщениям
Вы не можете скачивать файлы