Вратарь "Ливерпуля" / Keeper'n til Liverpool (Арильд Андресен / Arild Andresen) [2010, Норвегия, Семейный, Комедия, DVDRip] VO (Вячеслав Прошин) + original nor

Ответить на тему
 
Автор Сообщение

user ®

Стаж: 7 лет 7 месяцев

Сообщений: 20008

Пост Пост: #1 от 22-Май-2011 21:07

[Цитировать]

Вратарь "Ливерпуля" / Keeper'n til Liverpool
Страна: Норвегия
Жанр: Семейный, Комедия
Год выпуска: 2010
Продолжительность: 01:27:24
Перевод: Любительский (одноголосый закадровый)
Cубтитры: нет
Оригинальная аудиодорожка: норвежский
Режиссер: Арильд Андресен / Arild Andresen
В ролях: Аск ван дер Хаген, Сюзанна Буше, Андрин Сетер, Кир Хеллум, Юстин Брокс, Матис Аскер, Аня Киркенг Юргенсен, Стиан Аспелунд, Раймонд Вервик и др.
Описание: Ю Идстаду - тринадцать. Ю хорошо учится в школе, но убежден, что жизнь - штука опасная. Поэтому он старается держать свою жизнь под контролем и лишний раз не рисковать. Но вот в классе появляется новенькая ученица, и Ю, конечно, влюбляется в нее. Но чтобы завоевать расположение своей избранницы, Ю должен кардинально пересмотреть свои взгляды на жизнь...-Перевод: Дмитрий Александрович aka kitmur
Озвучание: Вячеслав Прошин-Сэмпл: http://multi-up.com/487773
Качество видео: DVDRip
Формат видео: AVI
Видео: Xvid 704x368 25.00fps 2000Kbps
Аудио 1: MPEG Audio Layer 3 48000Hz stereo 192kbps (русский)
Аудио 2: MPEG Audio Layer 3 48000Hz stereo 192kbps (норвежский)

MediaInfo

General
Complete name : I:\Вратарь Ливерпуля\Keeper'n.til.Liverpool.rus.nor.avi
Format : AVI
Format/Info : Audio Video Interleave
File size : 1.46 GiB
Duration : 1h 27mn
Overall bit rate : 2 399 Kbps
Writing application : VirtualDubModRus 1.5.10.2 (build 2540/release)
Writing library : VirtualDubMod build 2540/release
Video
ID : 0
Format : MPEG-4 Visual
Format profile : Advanced Simple@L5
Format settings, BVOP : 2
Format settings, QPel : No
Format settings, GMC : No warppoints
Format settings, Matrix : Default (H.263)
Muxing mode : Packed bitstream
Codec ID : XVID
Codec ID/Hint : XviD
Duration : 1h 27mn
Bit rate : 2 000 Kbps
Width : 704 pixels
Height : 368 pixels
Display aspect ratio : 1.913
Frame rate : 25.000 fps
Color space : YUV
Chroma subsampling : 4:2:0
Bit depth : 8 bits
Scan type : Progressive
Compression mode : Lossy
Bits/(Pixel*Frame) : 0.309
Stream size : 1.22 GiB (83%)
Writing library : XviD 63
Audio #1
ID : 1
Format : MPEG Audio
Format version : Version 1
Format profile : Layer 3
Mode : Joint stereo
Codec ID : 55
Codec ID/Hint : MP3
Duration : 1h 27mn
Bit rate mode : Constant
Bit rate : 192 Kbps
Channel(s) : 2 channels
Sampling rate : 48.0 KHz
Compression mode : Lossy
Stream size : 120 MiB (8%)
Alignment : Aligned on interleaves
Interleave, duration : 40 ms (1.00 video frame)
Interleave, preload duration : 504 ms
Audio #2
ID : 2
Format : MPEG Audio
Format version : Version 1
Format profile : Layer 3
Mode : Joint stereo
Mode extension : MS Stereo
Codec ID : 55
Codec ID/Hint : MP3
Duration : 1h 27mn
Bit rate mode : Constant
Bit rate : 192 Kbps
Channel(s) : 2 channels
Sampling rate : 48.0 KHz
Compression mode : Lossy
Stream size : 120 MiB (8%)
Alignment : Split accross interleaves
Interleave, duration : 40 ms (1.00 video frame)
Interleave, preload duration : 500 ms

Скриншот c названием фильма

Скриншоты

Скачать

Скачать торрент!

Как скачивать? · Что такое торрент? · Рейтинг и ограничения

Сайт не распространяет и не хранит электронные версии произведений, а лишь предоставляет доступ к создаваемому пользователями каталогу ссылок на торрент-файлы, которые содержат только списки хеш-сумм

[Профиль] [ЛС]
Показать сообщения:    
Ответить на тему

Текущее время: Сегодня 16:24

Часовой пояс: GMT + 4



Вы не можете начинать темы
Вы не можете отвечать на сообщения
Вы не можете редактировать свои сообщения
Вы не можете удалять свои сообщения
Вы не можете голосовать в опросах
Вы не можете прикреплять файлы к сообщениям
Вы не можете скачивать файлы