Суперменеджер, или Мотыга судьбы (Богдан Дробязко) [2011, фэнтези, комедия, приключения, CamRip]

Ответить на тему
 
Автор Сообщение

user ®

Стаж: 7 лет 7 месяцев

Сообщений: 20008

Пост Пост: #1 от 21-Май-2011 15:33

[Цитировать]

Суперменеджер, или Мотыга судьбы
-Страна: Россия
Жанр: фэнтези, комедия, приключения
Год выпуска: 2011
Продолжительность: 01:17:52-Режиссёр: Богдан Дробязко-В ролях: Юрий Чурсин, Сергей Медведев, Екатерина Вилкова, Екатерина Астахова, Иван Охлобыстин, Александр Ильин мл., Алексей Маклаков, Александр Пожаров, Петр Федоров-Описание: Давным-давно в одном большом городе, когда кризис вроде бы миновал, жили два брата. Младший Никита был самым обыкновенным… Хоббитом, капитаном арбалетчиков из Клана Лысых Холмов, любил пиво, ролевые игры, эльфийский лист, девушку Настю, романы про Средиземье и ничего не делать. Ну, а старший брат Егор служил топ-менеджером большой нефтяной компании. Но у любого менеджера бывает белая полоса, а бывает… увольнение.
В один прекрасный день Егор остался без работы, без офиса и без девушки. И тогда решил Егор обратиться за помощью к своему младшему брату, правда, у того тоже начались большие проблемы. Пропала мотыга Великого Торина — друга и соратника Никиты…- -Качество видео: CamRip
Формат видео: AVI
Видео: 688x384(16:9), 25.000 fps, XviD ~1124 kbps avg, 0.170 bit/pixel
Аудио: 48 kHz, MPEG Layer 3, 2 ch, ~128.00 kbps avg
Скачать: Сэмпл-

MediaInfo

General
Complete name : Supermenedjer.ili.Motyga.sudby.O.CAMRip.avi
Format : AVI
Format/Info : Audio Video Interleave
File size : 703 MiB
Duration : 1h 17mn
Overall bit rate : 1 262 Kbps
Writing application : VirtualDubMod 1.5.10.3 | www.virtualdub-fr.org || (build 2550/release)
Writing library : VirtualDubMod build 2550/release
Video
ID : 0
Format : MPEG-4 Visual
Format profile : Advanced Simple@L5
Format settings, BVOP : Yes
Format settings, QPel : No
Format settings, GMC : No warppoints
Format settings, Matrix : Default (H.263)
Codec ID : XVID
Codec ID/Hint : XviD
Duration : 1h 17mn
Bit rate : 1 124 Kbps
Width : 688 pixels
Height : 384 pixels
Display aspect ratio : 16:9
Frame rate : 25.000 fps
Color space : YUV
Chroma subsampling : 4:2:0
Bit depth : 8 bits
Scan type : Progressive
Compression mode : Lossy
Bits/(Pixel*Frame) : 0.170
Stream size : 626 MiB (89%)
Writing library : XviD 1.2.1 (UTC 2008-12-04)
Audio
ID : 1
Format : AC-3
Format/Info : Audio Coding 3
Mode extension : CM (complete main)
Codec ID : 2000
Duration : 1h 17mn
Bit rate mode : Constant
Bit rate : 128 Kbps
Channel(s) : 2 channels
Channel positions : Front: L R
Sampling rate : 48.0 KHz
Bit depth : 16 bits
Compression mode : Lossy
Stream size : 71.3 MiB (10%)
Alignment : Split accross interleaves
Interleave, duration : 40 ms (1.00 video frame)
Interleave, preload duration : 500 ms

Скриншот c названием фильма

Скриншоты

Скачать

Скачать торрент!

Как скачивать? · Что такое торрент? · Рейтинг и ограничения

Сайт не распространяет и не хранит электронные версии произведений, а лишь предоставляет доступ к создаваемому пользователями каталогу ссылок на торрент-файлы, которые содержат только списки хеш-сумм

[Профиль] [ЛС]
Показать сообщения:    
Ответить на тему

Текущее время: Сегодня 04:24

Часовой пояс: GMT + 4



Вы не можете начинать темы
Вы не можете отвечать на сообщения
Вы не можете редактировать свои сообщения
Вы не можете удалять свои сообщения
Вы не можете голосовать в опросах
Вы не можете прикреплять файлы к сообщениям
Вы не можете скачивать файлы