Самые большие и страшные жуки в мире / World's Biggest and Baddest Bugs (2004) HDRip

Ответить на тему
 
Автор Сообщение

user ®

Стаж: 8 лет 7 месяцев

Сообщений: 20007

Пост Пост: #1 от 17-Май-2011 12:13

[Цитировать]

Информация о фильме
Название: Самые большие и страшные жуки в мире
Оригинальное название: World's Biggest and Baddest Bugs
Год выхода: 2004
Жанр: Документальный
О фильме: Проживающий в Новой Зеландии, голландец по происхождению, энтомолог Рууд Клейнпасте предпринимает энтомологическую одиссею вокруг земного шара в поисках действительно самого большого и жуткого насекомого. Попутно Рууд объясняет, что делает очередная "звезда" шоу, настолько удивительным и увлекательным способом, что даже арахнофобы увидят свои страхи в новом свете!
Выпущено: NZHZ, Animal Planet / Новая Зеландия, США
Продолжительность: 01:26:43
Перевод: Профессиональный (одноголосый, закадровый) + Оригинал

MediaInfo

General
Complete name : Samye.bolwie.i.strawnye.zuki.v.mire.2004.XviD.HDRip_DaVinci.avi
Format : AVI
Format/Info : Audio Video Interleave
File size : 1.45 GiB
Duration : 1h 26mn
Overall bit rate : 2 399 Kbps
Writing application : VirtualDubMod 1.5.10.2 (build 2542/release)
Writing library : VirtualDubMod build 2542/release
Video #0
ID : 0
Format : MPEG-4 Visual
Format profile : AdvancedSimple@L5
Format settings, BVOP : Yes
Format settings, QPel : No
Format settings, GMC : No warppoints
Format settings, Matrix : Custom
Muxing mode : Packed bitstream
Codec ID : XVID
Codec ID/Hint : XviD
Duration : 1h 26mn
Bit rate : 1 806 Kbps
Width : 704 pixels
Height : 400 pixels
Display aspect ratio : 16:9
Frame rate : 29.970 fps
Resolution : 24 bits
Colorimetry : 4:2:0
Scan type : Progressive
Bits/(Pixel*Frame) : 0.214
Stream size : 1.09 GiB (75%)
Writing library : XviD 63
Audio #1
ID : 1
Format : AC-3
Format/Info : Audio Coding 3
Codec ID : 2000
Duration : 1h 26mn
Bit rate mode : Constant
Bit rate : 128 Kbps
Channel(s) : 2 channels
Channel positions : L R
Sampling rate : 48.0 KHz
Stream size : 79.4 MiB (5%)
Alignment : Split accross interleaves
Interleave, duration : 33 ms (1.00 video frame)
Interleave, preload duration : 500 ms
Audio #2
ID : 2
Format : AC-3
Format/Info : Audio Coding 3
Codec ID : 2000
Duration : 1h 26mn
Bit rate mode : Constant
Bit rate : 448 Kbps
Channel(s) : 6 channels
Channel positions : Front: L C R, Surround: L R, LFE
Sampling rate : 48.0 KHz
Stream size : 278 MiB (19%)
Alignment : Split accross interleaves
Interleave, duration : 33 ms (1.00 video frame)
Interleave, preload duration : 500 ms
Файл
Качество: HDRip
Формат: AVI
Видео кодек: XviD
Аудио кодек: MP3, AC3
Видео: 704x400 (1.77:1), 29.970 fps, XviD build 63 ~1806 kbps avg, 0.21 bit/pixel
Аудио #1: 48 kHz, MPEG Layer 3, 2 ch, ~128.00 kbps avg [RUS]
Аудио #2: 48 kHz, AC3 Dolby Digital, 3/2 (L,C,R,l,r) + LFE ch, ~448.00 kbps avg [ENG]

Скриншоты


Релиз группы:
Скачать

Скачать торрент!

Как скачивать? · Что такое торрент? · Рейтинг и ограничения

Сайт не распространяет и не хранит электронные версии произведений, а лишь предоставляет доступ к создаваемому пользователями каталогу ссылок на торрент-файлы, которые содержат только списки хеш-сумм

[Профиль] [ЛС]
Показать сообщения:    
Ответить на тему

Текущее время: Сегодня 16:03

Часовой пояс: GMT + 4



Вы не можете начинать темы
Вы не можете отвечать на сообщения
Вы не можете редактировать свои сообщения
Вы не можете удалять свои сообщения
Вы не можете голосовать в опросах
Вы не можете прикреплять файлы к сообщениям
Вы не можете скачивать файлы