Смертельный список / The Hit List (Уильям Кауфман / William Kaufman) [2011, США, боевик, триллер, HDRip] DVO

Ответить на тему
 
Автор Сообщение

user ®

Стаж: 7 лет 7 месяцев

Сообщений: 20008

Пост Пост: #1 от 08-Май-2011 02:01

[Цитировать]

Смертельный список / The Hit List
Страна: США
Жанр: боевик, триллер
Год выпуска: 2011
Продолжительность: 01:29:38
Перевод: Любительский (двухголосый закадровый)
Cубтитры: нет
Режиссер: Уильям Кауфман / William Kaufman
В ролях: Кьюба Гудинг мл., Коул Хаузер, Джонатан ЛаПалья, Джинни Вейрик, Дрю Уотерс, Шон Кук, Майкл Пападжон, Дж.П. О’Шонесси, Дэвид Эндриол, Брэндон О’Нейлл
Описание:
Однажды вечером бизнесмен Аллан Кэмпбелл, раздавленный чередой обрушившихся на него неприятностей, знакомится с таинственным незнакомцем Джонасом Арбором. Джонас представляется… профессиональным наемником и предлагает Аллану убить пятерых — на его выбор и совершенно бесплатно. Расценив предложение как неудачную шутку, Аллан составляет список жертв. Но уже на следующий день попавшие в злополучный перечень начинают по очереди погибать… Преследуемый полицией и мучимый чувством вины, Аллан бросается наперегонки со временем, чтобы помешать убийце — ведь за месть всегда приходится расплачиваться.
СЭМПЛ: http://multi-up.com/485815
Качество видео: HDRip [Рип с BDRip 720p]
Формат видео: AVI
Видео: XviD, 1 715 Kbps, 720x400, 23.976 fps
Аудио: АС3, 6 ch, 448 кб/с, 48.0 KHz

MediaInfo

General
Complete name : I:\Смертельный список The Hit List (2011) [HDRip]\Smertelnyj.spisok.2011.avi
Format : AVI
Format/Info : Audio Video Interleave
File size : 1.37 GiB
Duration : 1h 30mn
Overall bit rate : 2 170 Kbps
Writing application : VirtualDubMod 1.5.4.1 (build 2178/release)
Writing library : VirtualDubMod build 2178/release
Video
ID : 0
Format : MPEG-4 Visual
Format profile : Advanced Simple@L5
Format settings, BVOP : Yes
Format settings, QPel : No
Format settings, GMC : No warppoints
Format settings, Matrix : Custom
Codec ID : XVID
Codec ID/Hint : XviD
Duration : 1h 30mn
Bit rate : 1 715 Kbps
Width : 720 pixels
Height : 400 pixels
Display aspect ratio : 16:9
Frame rate : 23.976 fps
Color space : YUV
Chroma subsampling : 4:2:0
Bit depth : 8 bits
Scan type : Progressive
Bits/(Pixel*Frame) : 0.248
Stream size : 1.08 GiB (79%)
Writing library : XviD 58
Audio
ID : 1
Format : AC-3
Format/Info : Audio Coding 3
Mode extension : CM (complete main)
Codec ID : 2000
Duration : 1h 29mn
Bit rate mode : Constant
Bit rate : 448 Kbps
Channel(s) : 6 channels
Channel positions : Front: L C R, Side: L R, LFE
Sampling rate : 48.0 KHz
Bit depth : 16 bits
Stream size : 287 MiB (21%)
Alignment : Split accross interleaves
Interleave, duration : 42 ms (1.01 video frame)
Interleave, preload duration : 500 ms

Скриншоты

Скачать

Скачать торрент!

Как скачивать? · Что такое торрент? · Рейтинг и ограничения

Сайт не распространяет и не хранит электронные версии произведений, а лишь предоставляет доступ к создаваемому пользователями каталогу ссылок на торрент-файлы, которые содержат только списки хеш-сумм

[Профиль] [ЛС]
Показать сообщения:    
Ответить на тему

Текущее время: Сегодня 05:08

Часовой пояс: GMT + 4



Вы не можете начинать темы
Вы не можете отвечать на сообщения
Вы не можете редактировать свои сообщения
Вы не можете удалять свои сообщения
Вы не можете голосовать в опросах
Вы не можете прикреплять файлы к сообщениям
Вы не можете скачивать файлы