Бомж с дробовиком / Hobo with a Shotgun (Джейсон Айснер / Jason Eisener) [2011, США, Канада, боевик, триллер, криминал, HDTVRip] VO Sub rus + original eng

Ответить на тему
 
Автор Сообщение

user ®

Стаж: 7 лет 7 месяцев

Сообщений: 20008

Пост Пост: #1 от 14-Апр-2011 09:39

[Цитировать]

Бомж с дробовиком / Hobo with a Shotgun
Страна: США, Канада
Жанр: боевик, триллер, криминал
Год выпуска: 2011
Продолжительность: 01:26:05
Перевод: Любительский (одноголосый закадровый) Kerob
Cубтитры: русские, английские
Оригинальная аудиодорожка: английский
Режиссер: Джейсон Айснер / Jason Eisener
В ролях: Рутгер Хауэр, Грегори Смит, Робб Уэллс, Молли Дансуорт, Ник Бейтман, Брайан Дауни, Джереми Акерман, Дэвид Брант, Майкл Фокс, Паша Эбрахими и др.
Описание: В центре событий бомж, которому надоело наблюдать беспредел творящийся на улицах. В один прекрасный момент чаша его терпения переполняется, он хватает с витрины магазина дробовик и идет наводить справедливость, отстреливая бандитов, коррумпированных копов, педофилов и прочих уродов.
Доп. информация:
IMDB 7.4/10 (1,500 votes)
СЭМПЛ
Качество видео: HDTVRip
Формат видео: AVI
Видео: 720x304 (2.37:1), 23.976 fps, XviD build 50 ~1639 kbps avg, 0.31 bit/pixel
Аудио: 48 kHz, AC3 Dolby Digital, 3/2 (L,C,R,l,r) + LFE ch, ~384 kbps RUS
Аудио: 48 kHz, AC3 Dolby Digital, 3/2 (L,C,R,l,r) + LFE ch, ~384 kbps ENG
Формат субтитров: softsub (SRT)

AviInfo

File: Bomgh so stvolom.chopper887.avi
Title: Bomgh sjo stvolom.chopper887
Author: chopper887
Filesize: 1491.65 Mb ( 1 564 112 896 bytes )
Play length: 01:26:05.827 (123856 frames)
Subtitles: eng, rus (SubRip format)
Video: 720x304 (2.37:1), 23.976 fps, XviD build 50 ~1639 kbps avg, 0.31 bit/pixel
Audio #1: 48 kHz, AC3 Dolby Digital, 3/2 (L,C,R,l,r) + LFE ch, ~384 kbps
Audio #2: 48 kHz, AC3 Dolby Digital, 3/2 (L,C,R,l,r) + LFE ch, ~384 kbps

MediaInfo

General
Complete name : L:\Bomgh so stvolom.chopper887\Bomgh sjo stvolom.chopper887.avi
Format : AVI
Format/Info : Audio Video Interleave
File size : 1.46 GiB
Duration : 1h 26mn
Overall bit rate : 2 422 Kbps
Movie name : Bomgh sjo stvolom.chopper887
Director : chopper887
Writing application : VirtualDubMod 1.5.10.2 (build 2540/release)
Video
ID : 0
Format : MPEG-4 Visual
Format profile : AdvancedSimple@L5
Format settings, BVOP : Yes
Format settings, QPel : No
Format settings, GMC : No warppoints
Format settings, Matrix : Custom
Codec ID : XVID
Codec ID/Hint : XviD
Duration : 1h 26mn
Bit rate : 1 640 Kbps
Width : 720 pixels
Height : 304 pixels
Display aspect ratio : 2.35:1
Frame rate : 23.976 fps
Resolution : 24 bits
Colorimetry : 4:2:0
Scan type : Progressive
Bits/(Pixel*Frame) : 0.313
Stream size : 1 010 MiB (68%)
Writing library : XviD 1.2.1 (UTC 2008-12-04)
Audio #1
ID : 1
Format : AC-3
Format/Info : Audio Coding 3
Codec ID : 2000
Duration : 1h 26mn
Bit rate mode : Constant
Bit rate : 384 Kbps
Channel(s) : 6 channels
Channel positions : Front: L C R, Surround: L R, LFE
Sampling rate : 48.0 KHz
Stream size : 236 MiB (16%)
Alignment : Split accross interleaves
Interleave, duration : 42 ms (1.00 video frame)
Interleave, preload duration : 500 ms
Audio #2
ID : 2
Format : AC-3
Format/Info : Audio Coding 3
Codec ID : 2000
Duration : 1h 26mn
Bit rate mode : Constant
Bit rate : 384 Kbps
Channel(s) : 6 channels
Channel positions : Front: L C R, Surround: L R, LFE
Sampling rate : 48.0 KHz
Stream size : 236 MiB (16%)
Alignment : Split accross interleaves
Interleave, duration : 42 ms (1.00 video frame)
Interleave, preload duration : 500 ms

Скриншоты

Скачать

Скачать торрент!

Как скачивать? · Что такое торрент? · Рейтинг и ограничения

Сайт не распространяет и не хранит электронные версии произведений, а лишь предоставляет доступ к создаваемому пользователями каталогу ссылок на торрент-файлы, которые содержат только списки хеш-сумм

[Профиль] [ЛС]
Показать сообщения:    
Ответить на тему

Текущее время: Сегодня 16:30

Часовой пояс: GMT + 4



Вы не можете начинать темы
Вы не можете отвечать на сообщения
Вы не можете редактировать свои сообщения
Вы не можете удалять свои сообщения
Вы не можете голосовать в опросах
Вы не можете прикреплять файлы к сообщениям
Вы не можете скачивать файлы