Убойный уикенд / Cottage Country (Питер Веллингтон / Peter Wellington) [2013, Канада, боевик, комедия, криминал, HDRip] VO (den904)

Ответить на тему
 
Автор Сообщение

user ®

Стаж: 7 лет 7 месяцев

Сообщений: 20008

Пост Пост: #1 от 17-Июл-2013 09:22

[Цитировать]

Убойный уикенд / Cottage Country-«They aren't going to let a little blood spoil their perfect wedding.»- Страна: Канада
Жанр: боевик, комедия, криминал
Год выпуска: 2013
Продолжительность: 01:31:23-Перевод: Одноголосый закадровый den904. Перевод Janetta
Cубтитры: нет
Оригинальная аудиодорожка: нет-Режиссер: Питер Веллингтон / Peter Wellington
В ролях: Тайлер Лабайн, Малин Акерман, Джим Аннан, Бенджамин Эйрс, Сабрина Грдевич, Кристианна Хауфлер, Дэн Петронижевич, Люси Панч, Рэнди Браун, Уэйн В. Джонсон-Описание: Тодд Чиповски собирается провести незабываемый уик-энд в загородном коттедже, который он арендовал специально для того, чтобы сделать предложение своей возлюбленной Кэмми Райан. Но торжественное событие и чудесный отдых подпортило появление братца Тодда Сэлинджера и его подружки Маши. Однако выходные все равно становятся для героев незабываемыми — особенно после того, как Тодд в порыве ярости случайно убивает своего брата топором.- -Качество видео: HDRip
Формат видео: AVI-Видео: 720x384 (1.88:1), 24 fps, XviD build 50 ~1830 kbps avg, 0.28 bit/pixel
Аудио: Russian ( 48 kHz, AC3 Dolby Digital, 3/2 (L,C,R,l,r) + LFE ch, ~448 kbps )

MediaInfo

Общее
Полное имя : F:Uikend.2013.HDRip.1400Mb.avi
Формат : AVI
Формат/Информация : Audio Video Interleave
Размер файла : 1,46 Гбайт
Продолжительность : 1 ч. 31 м.
Общий поток : 2288 Кбит/сек
Программа кодирования : VirtualDubMod 1.5.10.3 | (build 2550/release)
Библиотека кодирования : VirtualDubMod build 2550/release
Видео
Идентификатор : 0
Формат : MPEG-4 Visual
Профиль формата : Advanced Simple@L5
Параметр BVOP формата : 2
Параметр QPel формата : Нет
Параметр GMC формата : Без точки перехода
Параметр матрицы формата : Выборочная
Идентификатор кодека : XVID
Идентификатор кодека/Подсказка : XviD
Продолжительность : 1 ч. 31 м.
Битрейт : 1830 Кбит/сек
Ширина : 720 пикс.
Высота : 384 пикс.
Соотношение сторон : 1,875
Частота кадров : 24,000 кадр/сек
Цветовое пространство : YUV
Подвыборка цветности : 4:2:0
Битовая глубина : 8 бит
Тип развёртки : Прогрессивная
Метод сжатия : С потерями
Бит/(Пиксели*Кадры) : 0.276
Размер потока : 1,17 Гбайт (80%)
Библиотека кодирования : XviD 1.2.1 (UTC 2008-12-04)
Аудио
Идентификатор : 1
Формат : AC-3
Формат/Информация : Audio Coding 3
Расширение режима : CM (complete main)
Идентификатор кодека : 2000
Продолжительность : 1 ч. 31 м.
Вид битрейта : Постоянный
Битрейт : 448 Кбит/сек
Каналы : 6 каналов
Расположение каналов : Front: L C R, Side: L R, LFE
Частота : 48,0 КГц
Битовая глубина : 16 бит
Метод сжатия : С потерями
Размер потока : 293 Мбайт (20%)
Выравнивание : Разделение по промежуткам
Продолжительность промежутка : 42 мс. (1,00 видеокадр)
Время предзагрузки промежутка : 500 ms

Скриншот c названием фильма

Скриншоты

Скачать

Скачать торрент!

Как скачивать? · Что такое торрент? · Рейтинг и ограничения

Сайт не распространяет и не хранит электронные версии произведений, а лишь предоставляет доступ к создаваемому пользователями каталогу ссылок на торрент-файлы, которые содержат только списки хеш-сумм

[Профиль] [ЛС]
Показать сообщения:    
Ответить на тему

Текущее время: Сегодня 02:18

Часовой пояс: GMT + 4



Вы не можете начинать темы
Вы не можете отвечать на сообщения
Вы не можете редактировать свои сообщения
Вы не можете удалять свои сообщения
Вы не можете голосовать в опросах
Вы не можете прикреплять файлы к сообщениям
Вы не можете скачивать файлы