Хамелеон / The Chameleon (Жан-Поль Саломе / Jean-Paul Salomé) [2010, США, Канада, Франция, Драма, триллер, биография, DVDRip] MVO [Лицензия]

Ответить на тему
 
Автор Сообщение

user ®

Стаж: 11 лет

Сообщений: 15151

Пост Пост: #1 от 07-Мар-2011 01:42

[Цитировать]

Хамелеон / The Chameleon
Страна: США, Канада, Франция
Жанр: Драма, триллер, биография
Год выпуска: 2010
Продолжительность: 01:30:13

Перевод: Профессиональный (многоголосый закадровый) [Лицензия]
Cубтитры: нет
Режиссер: Жан-Поль Саломе / Jean-Paul Salomé

В ролях: Марк-Андре Гронден, Фамке Янссен, Эллен Баркин, Эмили де Рэйвин, Тори Киттлз, Брайан Джерати, Ник Стал, Джеймс ДюМонт, Ричи Монтгомери, Лэнс Э. Николс
Описание: Пропавший несколько лет назад подросток неожиданно возвращается домой. Семья безумно счастлива такому воссоединению. Правда, за эти годы многое изменилось, и теперь отношения внутри семейства сильно напряжены. Поэтому возвращение сына и брата для них, как бальзам на душу. Но что-то в этой истории не так. Специальный агент ФБР подозревает, что вернувшийся парень может оказаться не тем, за кого себя выдает. Почему же тогда семья продолжает настаивать, что это их ребенок? Только раскрыв тайны прошлого, можно узнать всю правду…

Сэмпл: http://multi-up.com/444671
Качество видео: DVDRip
Формат видео: AVI
Видео: 720x400 (1.80:1), 25 fps, XviD build 47 ~1846 kbps avg, 0.26 bit/pixel
Аудио: 48 kHz, AC3 Dolby Digital, 3/2 (L,C,R,l,r) + LFE ch, ~448 kbps

Скриншоты



Скриншот c названием фильма

MediaInfo

General
Complete name : E:\фільми\Hameleon.2010.XviD.DVDRip.avi
Format : AVI
Format/Info : Audio Video Interleave
File size : 1.45 GiB
Duration : 1h 30mn
Overall bit rate : 2 304 Kbps
Writing application : VirtualDubMod 1.5.10.2 (build 2540/release)
Writing library : VirtualDubMod build 2540/release
Video
ID : 0
Format : MPEG-4 Visual
Format profile : Advanced Simple@L5
Format settings, BVOP : 3
Format settings, QPel : No
Format settings, GMC : No warppoints
Format settings, Matrix : Default (MPEG)
Codec ID : XVID
Codec ID/Hint : XviD
Duration : 1h 30mn
Bit rate : 1 847 Kbps
Width : 720 pixels
Height : 400 pixels
Display aspect ratio : 16:9
Frame rate : 25.000 fps
Color space : YUV
Chroma subsampling : 4:2:0
Bit depth : 8 bits
Scan type : Progressive
Compression mode : Lossy
Bits/(Pixel*Frame) : 0.256
Stream size : 1.16 GiB (80%)
Writing library : XviD 1.2.0.dev47 (UTC 2006-11-01)
Audio
ID : 1
Format : AC-3
Format/Info : Audio Coding 3
Mode extension : CM (complete main)
Codec ID : 2000
Duration : 1h 30mn
Bit rate mode : Constant
Bit rate : 448 Kbps
Channel(s) : 6 channels
Channel positions : Front: L C R, Side: L R, LFE
Sampling rate : 48.0 KHz
Bit depth : 16 bits
Compression mode : Lossy
Stream size : 289 MiB (19%)
Alignment : Split accross interleaves
Interleave, duration : 40 ms (1.00 video frame)
Interleave, preload duration : 500 ms
Скачать

Скачать торрент! Хамелеон / The Chameleon (Жан-Поль Саломе / Jean-Paul Salomé) [2010, США, Канада, Франция, Драма, триллер, биография, DVDRip] MVO [Лицензия]

Как скачивать? · Что такое торрент? · Рейтинг и ограничения

Сайт не распространяет и не хранит электронные версии произведений, а лишь предоставляет доступ к создаваемому пользователями каталогу ссылок на торрент-файлы, которые содержат только списки хеш-сумм

[Профиль] [ЛС]
Показать сообщения:    
Ответить на тему

Текущее время: Сегодня 04:05

Часовой пояс: GMT + 4



Вы не можете начинать темы
Вы не можете отвечать на сообщения
Вы не можете редактировать свои сообщения
Вы не можете удалять свои сообщения
Вы не можете голосовать в опросах
Вы не можете прикреплять файлы к сообщениям
Вы не можете скачивать файлы