Бурлеск / Burlesque (Стив Энтин / Steve Antin) [2010, США, мюзикл, драма, мелодрама, HDRip] DUB (R5)

Ответить на тему
 
Автор Сообщение

user ®

Стаж: 11 лет

Сообщений: 15151

Пост Пост: #1 от 27-Фев-2011 18:56

[Цитировать]

Бурлеск / Burlesque
Год выпуска: 2010
Страна: США
Киностудия: De Line Pictures
Жанр: мюзикл, драма, мелодрама
Продолжительность: 01:58:58
Перевод: Дублированный
Cубтитры: нет
Оригинальная аудиодорожка: нет
Режиссер: Стив Энтин / Steve Antin
В ролях: Шер, Кристина Агилера, Эрик Дэйн, Кэм Жиганде, Джулианна Хаф, Алан Камминг, Питер Галлахер, Кристен Белл, Стенли Туччи, Дианна Агрон
Описание: Али — молодая амбициозная девушка из маленького городка с чудесным голосом, совсем недавно потеряла своих родителей. Теперь никому не нужная, она отправляется в большой город Лос-Анджелес, где устраивается на работу у Тесс, хозяйки ночного клуба «Бурлеск». За короткое время она находит друзей, поклонников и любовь всей своей жизни. Но может ли сказка длиться вечно? Ведь немало людей завидует этой прекрасной танцовщице…

Бюджет: $55 000 000
Качество видео: HDRip, источник из релиза:
Формат видео: AVI
Видео: 720x304 (2.35:1), 23.976 fps, XVID ~1362 kbps avg, 0.259 bit/pixel
Аудио: 48 kHz, AC3, 6 ch, 384.00 kbps Constant

MediaInfo

Общее
Полное имя : Burlesk.2010.D.HDRip.1.46GB.avi
Формат : AVI
Формат/Информация : Audio Video Interleave
Размер файла : 1,46 Гбайт
Продолжительность : 1 ч. 58 м.
Общий поток : 1755 Кбит/сек
Программа кодирования : VirtualDubMod 1.5.10.3 (build 2550/release)
Библиотека кодирования : VirtualDubMod build 2550/release
Видео
Идентификатор : 0
Формат : MPEG-4 Visual
Профиль формата : Advanced Simple@L5
Параметр BVOP формата : 1
Параметр QPel формата : Нет
Параметр GMC формата : Без точки перехода
Параметр матрицы формата : Выборочная
Идентификатор кодека : XVID
Идентификатор кодека/Подсказка : XviD
Продолжительность : 1 ч. 58 м.
Битрейт : 1362 Кбит/сек
Ширина : 720 пикс.
Высота : 304 пикс.
Соотношение сторон : 2,35:1
Частота кадров : 23,976 кадр/сек
Цветовое пространство : YUV
Подвыборка цветности : 4:2:0
Битовая глубина : 8 бит
Тип развёртки : Прогрессивная
Метод сжатия : С потерями
Бит/(Пиксели*Кадры) : 0.259
Размер потока : 1,13 Гбайт (78%)
Библиотека кодирования : XviD 1.2.1 (UTC 2008-12-04)
Аудио
Идентификатор : 1
Формат : AC-3
Формат/Информация : Audio Coding 3
Расширение режима : CM (complete main)
Идентификатор кодека : 2000
Продолжительность : 1 ч. 58 м.
Вид битрейта : Постоянный
Битрейт : 384 Кбит/сек
Канал(ы) : 6 канала(ов)
Расположение каналов : Front: L C R, Side: L R, LFE
Частота : 48,0 КГц
Битовая глубина : 16 бит
Метод сжатия : С потерями
Размер потока : 327 Мбайт (22%)
Выравнивание : Разделение по промежуткам
Продолжительность промежутка : 42 мс. (1,00 видеокадр)
Время предзагрузки промежутка : 500 ms

Скриншот с названием

Скриншоты

Скачать

Скачать торрент! Бурлеск / Burlesque (Стив Энтин / Steve Antin) [2010, США, мюзикл, драма, мелодрама, HDRip] DUB (R5)

Как скачивать? · Что такое торрент? · Рейтинг и ограничения

Сайт не распространяет и не хранит электронные версии произведений, а лишь предоставляет доступ к создаваемому пользователями каталогу ссылок на торрент-файлы, которые содержат только списки хеш-сумм

[Профиль] [ЛС]
Показать сообщения:    
Ответить на тему

Текущее время: Сегодня 11:07

Часовой пояс: GMT + 4



Вы не можете начинать темы
Вы не можете отвечать на сообщения
Вы не можете редактировать свои сообщения
Вы не можете удалять свои сообщения
Вы не можете голосовать в опросах
Вы не можете прикреплять файлы к сообщениям
Вы не можете скачивать файлы