Волк / Wolf (Сезон 1, Серия 1-14 из 14 ) (Геннадий Островский) [2020, Детектив, драма, исторический, приключения, экранизация , WEB-DLRip - HEVC - 1080p]

Ответить на тему
 
Автор Сообщение

Nikolai.Baranov ®

Пост Пост: #1 от 04-Янв-2021 13:42

[Цитировать]

---- -- Волк / Wolf - (Сезон 1 , Серия 1-14 из 14 ) - Полный Комплект ---Год выпуска: 2020
Выпущено: Россия , КИТ, ВайТ Медиа
Жанр: Детектив, драма, исторический, приключения, экранизация
Продолжительность 00:51:00
Сезон:1
Серия:1-14
Количество серий в сезоне:14 --Озвучка #1: - Оригинал - Русский --Релиз Без Рекламы -- -- Геннадий Островский --В ролях: Денис Шведов, Сергей Маковецкий, Артур Смольянинов, Елена Подкаминская, Антон Васильев, Виктор Проскурин, Алёна Михайлова, Марина Зудина, Виталий Хаев, Саид Багов, Мария Ульянова, Аскар Нигамедзянов, Валентина Ляпина, Игорь Ясулович, Илья Любимов, Варвара Феофанова, Алевтина Тукан, Игорь Миркурбанов, Александр Семчев, Катерина Беккер, Сергей Комаров (II) -- После неудачной спецоперации разведчик Александр Волк попадает в тюрьму арабского Востока. Спустя несколько лет генерал-майор КГБ в отставке Гольцман помогает ему выбраться из плена, но взамен просит Волка найти убийц своего сына. Убитый был хорошим другом Александра, поэтому тот немедленно берется за дело. Накануне своей смерти сын Гольцмана занимался расследованием событий 3 июня 1943 года на Каменном мосту в Москве, когда была убита дочь посла СССР в Мексике. Волк восстанавливает события прошлого, но чем больше он узнает, тем опаснее становится дело... -- --Качество : -WEB-DLRip - HEVC - 1080p.
Формат: MKV
Видео кодек: H265
Видео: 3530 Кбит/сек,1904х1072 (16.9),в 25.000 кадр/сек, HEVC (Main10@L5.2@Main)--Аудио Кодек: AC3
Аудио #1: @DD5.1 AC3 , 384 Kbps, 48.0 KHz, 6 ch - Оригинал - Русский --

Доп. информация:

Звуковая дорожка сделана путем наложения чистого голоса озвучивателей на центральный канал оригинальной дорожки. Качество идентично звуковой дорожке.
--

MediaInfo 1Сезон

Общее
Уникальный идентификатор : 251203924437508541656593923548691984953 (0xBCFC1DB3A126CB225B12E0770BE67239)
Полное имя : E:\Baranov\Волк - Wolf\Wolf_2020_S01_HEVC- 10Bit_Н265_DD5.1_N.B_HD_1080_Rus\Wolf_2020_S01E01-E03_HEVC_DD5.1_N.B_HD_1080_Rus.mkv
Формат : Matroska
Версия формата : Version 4
Размер файла : 3,98 Гбайт
Продолжительность : 2 ч. 25 м.
Общий поток : 3 915 Кбит/сек
Название фильма : Wolf 2020 S01E01-E03 @ Nikolai.Baranov & PIRATIYA
Дата кодирования : UTC 2021-01-02 16:20:18
Программа кодирования : mkvmerge v51.0.0 ('I Wish') 64-bit
Библиотека кодирования : libebml v1.4.0 + libmatroska v1.6.2
Видео
Идентификатор : 1
Формат : HEVC
Формат/Информация : High Efficiency Video Coding
Профиль формата : Main 10@L5.2@Main
Идентификатор кодека : V_MPEGH/ISO/HEVC
Продолжительность : 2 ч. 25 м.
Битрейт : 3 530 Кбит/сек
Ширина : 1 904 пикселя
Высота : 1 072 пикселя
Соотношение сторон : 16:9
Режим частоты кадров : Постоянный
Частота кадров : 25,000 кадров/сек
Цветовое пространство : YUV
Субдискретизация насыщенности : 4:2:0
Битовая глубина : 10 бит
Бит/(Пиксели*Кадры) : 0.069
Размер потока : 3,59 Гбайт (90%)
Заголовок : Wolf_2020_S01E01-E03_HEVC_DD5.1_N.B_HD_1080_Rus
Язык : Russian
Default : Да
Forced : Нет
Цветовой диапазон : Full
Основные цвета : BT.709
Характеристики трансфера : BT.709
Коэффициенты матрицы : BT.709
Аудио
Идентификатор : 2
Формат : AC-3
Формат/Информация : Audio Coding 3
Коммерческое название : Dolby Digital
Идентификатор кодека : A_AC3
Продолжительность : 2 ч. 25 м.
Вид битрейта : Постоянный
Битрейт : 384 Кбит/сек
Каналы : 6 каналов
Channel layout : L R C LFE Ls Rs
Частота : 48,0 КГц
Частота кадров : 31,250 кадров/сек (1536 SPF)
Метод сжатия : С потерями
Размер потока : 400 Мбайт (10%)
Заголовок : Original@DD5.1 AC3 , 384 Kbps, 48.0 KHz, 6 ch
Язык : Russian
Service kind : Complete Main
Default : Да
Forced : Нет
Меню
00:00:00.000 : ru:Глава 01 / ru:Глава 01
-- --
1Сезон
--

Как закачать отдельный файл

1. Открыть торрент
2. Снять галки с тех файлов торрента, которые мы не хотим закачивать. Оставляем только на нужных нам файлах (файле).
3. Нажать О.К.
В клиенте utorrent
Инструкция
1) Открыть торрент

2) Снять галки с тех файлов торрента, которые мы не хотим закачивать:
* либо вручную, снимая с каждого файла галку( скрин №1)
* либо, нажав кнопку "Снять метки (Select None)", сняв сразу со всех файлов(скрин №2)
№1

№2

Оставляем только на нужных нам файлах (файле).

3)Нажать О.К
-- -- --Релиз от: Nikolai.Baranov & PIRATIYAПоблагодарить:
ЯД: 410017546713876
-- -- -- --Время раздачи : 24/7--
Скачать

Скачать торрент! Волк / Wolf (Сезон 1, Серия 1-14 из 14 ) (Геннадий Островский) [2020, Детектив, драма, исторический, приключения, экранизация , WEB-DLRip - HEVC - 1080p]

Как скачивать? · Что такое торрент? · Рейтинг и ограничения

Сайт не распространяет и не хранит электронные версии произведений, а лишь предоставляет доступ к создаваемому пользователями каталогу ссылок на торрент-файлы, которые содержат только списки хеш-сумм

 
Показать сообщения:    
Ответить на тему

Текущее время: Сегодня 23:41

Часовой пояс: GMT + 4



Вы не можете начинать темы
Вы не можете отвечать на сообщения
Вы не можете редактировать свои сообщения
Вы не можете удалять свои сообщения
Вы не можете голосовать в опросах
Вы не можете прикреплять файлы к сообщениям
Вы не можете скачивать файлы