Мандалорец / The Mandalorian(Сезон 2 , Серия 1-8 из 8 ) (Дебора Чоу, Рик Фамуйива) [2020, Фантастика, боевик, приключения,WEB-DLRip - HEVC - 1080p] [Dub Flarrow Films+LostFilm +AlexFilm+NewStudio+Jaskier + TVShows +Ю. Сербин+ Eng]+[Subs Rus , ENG]

Ответить на тему
 
Автор Сообщение

Nikolai.Baranov ®

Пост Пост: #1 от 26-Дек-2020 14:16

[Цитировать]

---- ---- Мандалорец / The Mandalorian (Сезон 2 , Серия 1 - 8 из 8 ) - Полный Комплект --- --Год выпуска: 2020
Выпущено: США , Lucasfilm Ltd., Walt Disney Studios
Жанр: Фантастика, боевик, приключения
Продолжительность: 00:52:00
Сезон:2
Серия:1 -7
Количество серий в сезоне: 8--Озвучка # 1: Профессиональный многоголосый- AlexFilm - Русский
Озвучка # 2: Профессиональный многоголосый- LostFilm - Русский
Озвучка # 3: Профессиональный многоголосый- NewStudio - Русский
Озвучка # 4: Профессиональный многоголосый- Jaskier - Русский
Озвучка # 5: Профессиональный многоголосый- TVShows - Русский
Озвучка # 6: Профессиональный (одноголосый закадровый) - Ю. Сербин - Русский
Озвучка # 7: Профессиональный многоголосый- HDRezka Studio - Русский
Озвучка # 8: Профессиональный многоголосый- AMS - Русский
Озвучка # 9: Дублированный- Flarrow Films - Русский
Озвучка # 10: Профессиональный многоголосый- В одне рило - Украинский
Озвучка #11: Профессиональный многоголосый -Английский - Оригинал--

Субтитры :

Субтитры (UTF-8): вшитые
#1 - Русские - Russian ( Full) (включены по умолчанию)
#2 - Русские - Russian (Forced)
#3 - Английские - English
#4- Английские - English (SDH)
#5 - Украинские - Украинские--Внешние:
#1 - Русские - Russian ( Full)
#2 - Русские - Russian (Forced)
#3 - Английские - English
#4- Английские - English (SDH)
#5 - Украинские - Украинские
-Релиз Без Рекламы --MDB 8.7 --Режиссеры:
Дебора Чоу, Рик Фамуйива, Дэйв Филони --В ролях: Педро Паскаль, Кайл Пацек, Брендан Уэйн, Бернард Баллен, Александра Гилман, Луис Ричард Гомес, Джамал Антар, Тейт Флетчер, Тони Табоада, Омид Абтахи -- События «Мандалорца» разворачиваются после падения Галактической империи в финале «Возвращения джедая» из саги «Звездных войн», но до появления Первого Ордена, с которым зрители познакомились в «Пробуждении силы». В центре сюжета — одинокий мандалорец-наёмник, живущий на краю обитаемой галактики на окраине ЗВ, куда не долетают джедаи и ситхи и не дотягивается закон Новой Республики. Представитель некогда могучей расы благородных воинов-мандалорцев, теперь он вынужден влачить жалкое существование среди отбросов общества. -- --Качество : WEB-DLRip - HEVC 10bit - 1080p
Формат: MKV
Видео кодек: H265
Видео: 3570 Кбит/сек,1920х800 , (2.40.1),в 24.000 кадр/сек, HEVC (Main10@L5.2@Main)--Аудио Кодек:Аудио Кодек:AC3
Аудио #1: MVO AlexFilm @DD5.1 AC3, 384 Kbps, 48.0 KHz, 6 ch - AlexFilm - Русский
Аудио #2: MVO LostFilm @DD5.1 AC3, 640 Kbps, 48.0 KHz, 6 ch - LostFilm - Русский
Аудио #3: MVO NewStudio @DD5.1 AC3, 640 Kbps, 48.0 KHz, 6 ch -
NewStudio - Русский
Аудио #4: MVO Jaskier @DD5.1 AC3, 384 Kbps, 48.0 KHz, 6 ch - Jaskier - Русский
Аудио #5: MVO TVShows @DD5.1 AC3, 384 Kbps, 48.0 KHz, 6 ch - TVShows - Русский
Аудио #6: VO Ю. Сербин @DD5.1 AC3, 640 Kbps, 48.0 KHz, 6 ch - Ю. Сербин - Русский
Аудио #7: MVO HDRezka Studio @DD5.1 AC3, 384 Kbps, 48.0 KHz, 6 ch - HDRezka Studio - Русский
Аудио #8: MVO AMS @DD5.1 AC3, 384 Kbps, 48.0 KHz, 6 ch - AMS - Русский
Аудио #9: Dub Rus Flarrow Films @DD5.1 AC3, 384 Kbps, 48.0 KHz, 6 ch - Flarrow Films -Дублированный- Русский
Аудио #10: MVO В одне рило @DD5.1 AC3, 640 Kbps, 48.0 KHz, 6 ch - В одне рило - Украинский
Аудио #11: Original@DD5.1 E-AC3 ,768 Kbps, 48.0 KHz, 6 ch - English - Оригинал-

Доп. информация:

Звуковая дорожка сделана путем наложения чистого голоса озвучивателей на центральный канал оригинальной дорожки. Качество идентично звуковой дорожке.
--

Список эпизодов сезона


2 сезон 1 серия - Глава 9: Шериф - Chapter 9: The Marshal
2 сезон 2 серия - Глава 10: Пассажир - Chapter 10: The Passenger
2 сезон 3 серия - Глава 11: Наследница - Chapter 11: The Heiress
2 сезон 4 серия - Глава 12: Осада - Chapter 12: The Siege
2 сезон 5 серия - Глава 13: Джедай - Chapter 13: The Jedi
2 сезон 6 серия - Глава 14: Трагедия - Chapter 14: The Tragedy
2 сезон 7 серия - Глава 15: Убеждения - Chapter 15: The Believer
2 сезон 8 серия - Глава 16: Спасение - Chapter 16: The Rescue
--

MediaInfo

Общее
Уникальный идентификатор : 300168034252481271342476650322443851071 (0xE1D242B3804DA68DC92774460B4F553F)
Полное имя : D:\PIRATIYA\Мандалорец - The Mandalorian\The_Mandalorian_2020_S02_HEVC- 10Bit_Н265_DD5.1_N.B_HD_1080_6xRus_Eng\The.Mandalorian.S02E01_HEVC_Н265_DD5.1_N.B_HD_1080_6xRus_Eng.mkv
Формат : Matroska
Версия формата : Version 4
Размер файла : 3,43 Гбайт
Продолжительность : 51 м. 49 с.
Общий поток : 9 463 Кбит/сек
Название фильма : The Mandalorian 2020 S02E01 @ Nikolai.Baranov & PIRATIYA
Дата кодирования : UTC 2020-12-25 19:04:29
Программа кодирования : mkvmerge v51.0.0 ('I Wish') 64-bit
Библиотека кодирования : libebml v1.4.0 + libmatroska v1.6.2
Обложка : Yes
Attachments : Cover_The.Mandalorian.s02.jpg / small_cover_land.jpg / cover.jpg / cover_land.jpg / small_cover.jpg
Anyway : enjoy your star trek kids
Greetz to : BHD staff for being amazing uwu
Hi : pls let me (impragma) back on BTN, I miss it :'(
Видео
Идентификатор : 1
Формат : HEVC
Формат/Информация : High Efficiency Video Coding
Профиль формата : Main 10@L5.2@Main
Идентификатор кодека : V_MPEGH/ISO/HEVC
Продолжительность : 51 м. 48 с.
Битрейт : 3 570 Кбит/сек
Ширина : 1 920 пикселей
Высота : 800 пикселей
Соотношение сторон : 2,40:1
Режим частоты кадров : Постоянный
Частота кадров : 24,000 кадра/сек
Цветовое пространство : YUV
Субдискретизация насыщенности : 4:2:0
Битовая глубина : 10 бит
Бит/(Пиксели*Кадры) : 0.097
Размер потока : 1,29 Гбайт (38%)
Заголовок : The.Mandalorian.S02E01_HEVC_Н265_DD5.1_N.B_HD_1080_6xRus_Eng
Язык : Russian
Default : Да
Forced : Нет
Цветовой диапазон : Full
Основные цвета : BT.709
Характеристики трансфера : BT.709
Коэффициенты матрицы : BT.709
Аудио #1
Идентификатор : 3
Формат : AC-3
Формат/Информация : Audio Coding 3
Коммерческое название : Dolby Digital
Идентификатор кодека : A_AC3
Продолжительность : 51 м. 48 с.
Вид битрейта : Постоянный
Битрейт : 384 Кбит/сек
Каналы : 6 каналов
Channel layout : L R C LFE Ls Rs
Частота : 48,0 КГц
Частота кадров : 31,250 кадров/сек (1536 SPF)
Метод сжатия : С потерями
Размер потока : 142 Мбайт (4%)
Заголовок : MVO AlexFilm @DD5.1 AC3, 384 Kbps, 48.0 KHz, 6 ch
Язык : Russian
Service kind : Complete Main
Default : Да
Forced : Нет
Аудио #2
Идентификатор : 4
Формат : AC-3
Формат/Информация : Audio Coding 3
Коммерческое название : Dolby Digital
Идентификатор кодека : A_AC3
Продолжительность : 51 м. 48 с.
Вид битрейта : Постоянный
Битрейт : 640 Кбит/сек
Каналы : 6 каналов
Channel layout : L R C LFE Ls Rs
Частота : 48,0 КГц
Частота кадров : 31,250 кадров/сек (1536 SPF)
Метод сжатия : С потерями
Размер потока : 237 Мбайт (7%)
Заголовок : MVO LostFilm @DD5.1 AC3, 640 Kbps, 48.0 KHz, 6 ch
Язык : Russian
Service kind : Complete Main
Default : Нет
Forced : Нет
Аудио #3
Идентификатор : 5
Формат : AC-3
Формат/Информация : Audio Coding 3
Коммерческое название : Dolby Digital
Идентификатор кодека : A_AC3
Продолжительность : 51 м. 48 с.
Вид битрейта : Постоянный
Битрейт : 640 Кбит/сек
Каналы : 6 каналов
Channel layout : L R C LFE Ls Rs
Частота : 48,0 КГц
Частота кадров : 31,250 кадров/сек (1536 SPF)
Метод сжатия : С потерями
Размер потока : 237 Мбайт (7%)
Заголовок : MVO NewStudio @DD5.1 AC3, 640 Kbps, 48.0 KHz, 6 ch
Язык : Russian
Service kind : Complete Main
Default : Нет
Forced : Нет
Аудио #4
Идентификатор : 6
Формат : AC-3
Формат/Информация : Audio Coding 3
Коммерческое название : Dolby Digital
Идентификатор кодека : A_AC3
Продолжительность : 51 м. 48 с.
Вид битрейта : Постоянный
Битрейт : 384 Кбит/сек
Каналы : 6 каналов
Channel layout : L R C LFE Ls Rs
Частота : 48,0 КГц
Частота кадров : 31,250 кадров/сек (1536 SPF)
Метод сжатия : С потерями
Размер потока : 142 Мбайт (4%)
Заголовок : MVO Jaskier @DD5.1 AC3, 384 Kbps, 48.0 KHz, 6 ch
Язык : Russian
Service kind : Complete Main
Default : Нет
Forced : Нет
Аудио #5
Идентификатор : 7
Формат : AC-3
Формат/Информация : Audio Coding 3
Коммерческое название : Dolby Digital
Идентификатор кодека : A_AC3
Продолжительность : 51 м. 48 с.
Вид битрейта : Постоянный
Битрейт : 384 Кбит/сек
Каналы : 6 каналов
Channel layout : L R C LFE Ls Rs
Частота : 48,0 КГц
Частота кадров : 31,250 кадров/сек (1536 SPF)
Метод сжатия : С потерями
Размер потока : 142 Мбайт (4%)
Заголовок : MVO TVShows @DD5.1 AC3, 384 Kbps, 48.0 KHz, 6 ch
Язык : Russian
Service kind : Complete Main
Default : Нет
Forced : Нет
Аудио #6
Идентификатор : 8
Формат : AC-3
Формат/Информация : Audio Coding 3
Коммерческое название : Dolby Digital
Идентификатор кодека : A_AC3
Продолжительность : 51 м. 48 с.
Вид битрейта : Постоянный
Битрейт : 640 Кбит/сек
Каналы : 6 каналов
Channel layout : L R C LFE Ls Rs
Частота : 48,0 КГц
Частота кадров : 31,250 кадров/сек (1536 SPF)
Метод сжатия : С потерями
Размер потока : 237 Мбайт (7%)
Заголовок : VO Ю. Сербин @DD5.1 AC3, 640 Kbps, 48.0 KHz, 6 ch
Язык : Russian
Service kind : Complete Main
Default : Нет
Forced : Нет
Аудио #7
Идентификатор : 9
Формат : E-AC-3 JOC
Формат/Информация : Enhanced AC-3 with Joint Object Coding
Коммерческое название : Dolby Digital Plus with Dolby Atmos
Идентификатор кодека : A_EAC3
Продолжительность : 51 м. 48 с.
Вид битрейта : Постоянный
Битрейт : 768 Кбит/сек
Каналы : 6 каналов
Channel layout : L R C LFE Ls Rs
Частота : 48,0 КГц
Частота кадров : 31,250 кадров/сек (1536 SPF)
Метод сжатия : С потерями
Размер потока : 285 Мбайт (8%)
Заголовок : Original@DD5.1 E-AC3 ,768 Kbps, 48.0 KHz, 6 ch
Язык : English
Service kind : Complete Main
Default : Нет
Forced : Нет
Complexity index : 16
Number of dynamic objects : 15
Bed channel count : 1 канал
Bed channel configuration : LFE
Аудио #8
Идентификатор : 12
Формат : AC-3
Формат/Информация : Audio Coding 3
Коммерческое название : Dolby Digital
Идентификатор кодека : A_AC3
Продолжительность : 51 м. 48 с.
Вид битрейта : Постоянный
Битрейт : 384 Кбит/сек
Каналы : 6 каналов
Channel layout : L R C LFE Ls Rs
Частота : 48,0 КГц
Частота кадров : 31,250 кадров/сек (1536 SPF)
Метод сжатия : С потерями
Размер потока : 142 Мбайт (4%)
Заголовок : MVO HDRezka Studio @DD5.1 AC3, 384 Kbps, 48.0 KHz, 6 ch
Язык : Russian
Service kind : Complete Main
Default : Нет
Forced : Нет
Аудио #9
Идентификатор : 13
Формат : AC-3
Формат/Информация : Audio Coding 3
Коммерческое название : Dolby Digital
Идентификатор кодека : A_AC3
Продолжительность : 51 м. 48 с.
Вид битрейта : Постоянный
Битрейт : 640 Кбит/сек
Каналы : 6 каналов
Channel layout : L R C LFE Ls Rs
Частота : 48,0 КГц
Частота кадров : 31,250 кадров/сек (1536 SPF)
Метод сжатия : С потерями
Размер потока : 237 Мбайт (7%)
Заголовок : MVO AMS @DD5.1 AC3, 384 Kbps, 48.0 KHz, 6 ch
Язык : Russian
Service kind : Complete Main
Default : Нет
Forced : Нет
Аудио #10
Идентификатор : 15
Формат : AC-3
Формат/Информация : Audio Coding 3
Коммерческое название : Dolby Digital
Идентификатор кодека : A_AC3
Продолжительность : 51 м. 48 с.
Вид битрейта : Постоянный
Битрейт : 640 Кбит/сек
Каналы : 6 каналов
Channel layout : L R C LFE Ls Rs
Частота : 48,0 КГц
Частота кадров : 31,250 кадров/сек (1536 SPF)
Метод сжатия : С потерями
Размер потока : 237 Мбайт (7%)
Заголовок : VO В одне рило @DD5.1 AC3, 640 Kbps, 48.0 KHz, 6 ch
Язык : Ukrainian
Service kind : Complete Main
Default : Нет
Forced : Нет
Аудио #11
Идентификатор : 17
Формат : AC-3
Формат/Информация : Audio Coding 3
Коммерческое название : Dolby Digital
Идентификатор кодека : A_AC3
Продолжительность : 51 м. 49 с.
Вид битрейта : Постоянный
Битрейт : 384 Кбит/сек
Каналы : 6 каналов
Channel layout : L R C LFE Ls Rs
Частота : 48,0 КГц
Частота кадров : 31,250 кадров/сек (1536 SPF)
Метод сжатия : С потерями
Размер потока : 142 Мбайт (4%)
Заголовок : Dub Rus Flarrow Films @DD5.1 AC3, 384 Kbps, 48.0 KHz, 6 ch
Язык : Russian
Service kind : Complete Main
Default : Нет
Forced : Нет
Текст #1
Идентификатор : 2
Формат : UTF-8
Идентификатор кодека : S_TEXT/UTF8
Идентификатор кодека/Информация : UTF-8 Plain Text
Продолжительность : 49 м. 6 с.
Битрейт : 53 бит/сек
Count of elements : 347
Размер потока : 19,4 Кбайт (0%)
Заголовок : Глава 9 Шериф-Russian
Язык : Russian
Default : Да
Forced : Нет
Текст #2
Идентификатор : 10
Формат : UTF-8
Идентификатор кодека : S_TEXT/UTF8
Идентификатор кодека/Информация : UTF-8 Plain Text
Продолжительность : 48 м. 25 с.
Битрейт : 43 бит/сек
Count of elements : 481
Размер потока : 15,4 Кбайт (0%)
Заголовок : Chapter 9 The Marshal-Original - SDH
Язык : English
Default : Нет
Forced : Нет
Текст #3
Идентификатор : 11
Формат : UTF-8
Идентификатор кодека : S_TEXT/UTF8
Идентификатор кодека/Информация : UTF-8 Plain Text
Продолжительность : 48 м. 21 с.
Битрейт : 33 бит/сек
Count of elements : 346
Размер потока : 11,8 Кбайт (0%)
Язык : English
Default : Нет
Forced : Нет
Текст #4
Идентификатор : 14
Формат : UTF-8
Идентификатор кодека : S_TEXT/UTF8
Идентификатор кодека/Информация : UTF-8 Plain Text
Продолжительность : 49 м. 24 с.
Битрейт : 0 бит/сек
Count of elements : 6
Размер потока : 333 байт (0%)
Заголовок : Глава 9 Шериф-Russian-Forced
Язык : Russian
Default : Нет
Forced : Нет
Текст #5
Идентификатор : 16
Формат : UTF-8
Идентификатор кодека : S_TEXT/UTF8
Идентификатор кодека/Информация : UTF-8 Plain Text
Продолжительность : 48 м. 13 с.
Битрейт : 56 бит/сек
Count of elements : 342
Размер потока : 19,9 Кбайт (0%)
Заголовок : Глава 9 Шериф-Ukr
Язык : Ukrainian
Default : Нет
Forced : Нет
Меню
00:00:00.000 : ru:Глава 01 / ru:Глава 01 / ru:Глава 01 / ru:Глава 01 / ru:Глава 01 / ru:Глава 01 / ru:Глава 01 / ru:Глава 01 / ru:Глава 01 / ru:Глава 01 / ru:Глава 01 / ru:Глава 01 / ru:Глава 01 / ru:Глава 01 / ru:Глава 01 / ru:Глава 01 / ru:Глава 01
--

Скриншоты

----
2 Сезон
--

Как закачать отдельный файл

1. Открыть торрент
2. Снять галки с тех файлов торрента, которые мы не хотим закачивать. Оставляем только на нужных нам файлах (файле).
3. Нажать О.К.
В клиенте utorrent
Инструкция
1) Открыть торрент

2) Снять галки с тех файлов торрента, которые мы не хотим закачивать:
* либо вручную, снимая с каждого файла галку( скрин №1)
* либо, нажав кнопку "Снять метки (Select None)", сняв сразу со всех файлов(скрин №2)
№1

№2

Оставляем только на нужных нам файлах (файле).

3)Нажать О.К
-- -- --Внимание!!! 26 .12. 2020. РАЗДАЧА ОБНОВЛЕНА. ДОБАВЛЕНА - 8 - СЕРИЯ .+ РУССКИЙ ДУБЛЯЖ + ОТСУТСТВУЮЩИЕ АУДИО ДОРОГИ . ФИНАЛ СЕЗОНА . ОБНОВИТЕ ТОРЕНТ ФАЙЛ. ПРИЯТНОГО ПРОСМОТРА . Поблагодарить:
ЯД: 410017546713876
--Релиз от: Nikolai.Baranov & PIRATIYA -- -- -- -
Скачать

Скачать торрент! Мандалорец / The Mandalorian(Сезон 2 , Серия 1-8 из 8 ) (Дебора Чоу, Рик Фамуйива) [2020, Фантастика, боевик, приключения,WEB-DLRip - HEVC - 1080p] [Dub Flarrow Films+LostFilm +AlexFilm+NewStudio+Jaskier + TVShows +Ю. Сербин+ Eng]+[Subs Rus , ENG]

Как скачивать? · Что такое торрент? · Рейтинг и ограничения

Сайт не распространяет и не хранит электронные версии произведений, а лишь предоставляет доступ к создаваемому пользователями каталогу ссылок на торрент-файлы, которые содержат только списки хеш-сумм

 
Показать сообщения:    
Ответить на тему

Текущее время: Сегодня 12:14

Часовой пояс: GMT + 4



Вы не можете начинать темы
Вы не можете отвечать на сообщения
Вы не можете редактировать свои сообщения
Вы не можете удалять свои сообщения
Вы не можете голосовать в опросах
Вы не можете прикреплять файлы к сообщениям
Вы не можете скачивать файлы