ЧУМА! Вторая волна / Plague! (Сезон 1-2 , Серия 1-10 из 14 ) ( Андрей Богатырёв) [2020, Комедия , WEB-DLRip - HEVC - 1080p]

Ответить на тему
 
Автор Сообщение

Nikolai.Baranov ®

Пол:

Стаж: 3 года 4 месяца

Сообщений: 203

Откуда: Красногорск

Пост Пост: #1 от 21-Ноя-2020 18:41

[Цитировать]

---- -- ЧУМА! Вторая волна / Plague! - (Сезон 1-2 , Серия 1-10 из 14 ) ----Год выпуска: 2020
Выпущено: Россия , Carbon Production, IVI
Жанр: Комедия
Продолжительность 00:23:00
Сезон:1-2
Серия:1-10
Количество серий в сезоне:14 --Озвучка #1: Русский --Релиз Без Рекламы -- -- Андрей Богатырёв --В ролях: Максим Лагашкин, Зоя Бербер, Ева Смирнова, Вячеслав Чепурченко, Алина Алексеева, Игорь Ознобихин, Надежда Сысоева, Кирилл Нагиев, Дмитрий Колчин, Сафия Яруллина, Дмитрий Хасис, Иван Купреенко, Александр Волохов, Денис Привалов, Иван Кулаков, Омар Алибутаев, Олег Верещагин, Николай Басков, Александр Плющенко, Кирилл Круглов, Вячеслав Манучаров, Артём Смирнов, Бахтияр Ташбулатов, Байбулат Батуллин, Сергей Ужахов, Сергей Бондарь, Всеволод Москвин, Олеся Кыдык -- В новом сезоне гонец Уильям, когда-то принёсший весть о чуме, отправляется на поиски Марты, пропавшей в конце первого сезона. В процессе спасательной операции он находит не только Марту, но и её родную сестру Августину. Так выясняется, что легенды о потерянной в детстве сестрёнке Марты были правдой. Вместе они возвращаются в замок. Барон, кажется, счастлив обрести пропавшую некогда дочь. Но с того момента, как в замке появляется Августина, вокруг начинают происходить странные вещи. На Барона совершаются покушения. Уильям теряет память. Вакцина от чумы оказывается отравлена. Печенеги прорываются в город. Опасность подстерегает каждого из героев, и кто-то явно не доживёт до конца сезона. А в остальном всё по-прежнему. Стражники стоят у ворот и обсуждают последние новости. Палач не хочет переходить на удалёнку. Маленькая Баронесса Анна бьётся за просвещение своего тёмного народа. А народ пытается выжить, несмотря на все карантины, масочные режимы и прочие нововведения, призванные защитить их от чумы. -- --Качество : -WEB-DLRip - HEVC - 1080p.
Формат: MKV
Видео кодек: H265
Видео: 3615 Кбит/сек,1920х1080 (16.9),в 25.000 кадр/сек, HEVC (Main10@L5.2@Main)--Аудио Кодек: AC3
Аудио #1: @DD5.1 AC3 , 384 Kbps, 48.0 KHz, 6 ch -Русский--

Доп. информация:

Звуковая дорожка сделана путем наложения чистого голоса озвучивателей на центральный канал оригинальной дорожки. Качество идентично звуковой дорожке.
--

MediaInfo 1Сезон

Общее
Уникальный идентификатор : 87981500143549566600142905933580078491 (0x42309EDD88FB9F706488D1A1E4760D9B)
Полное имя : D:\PIRATIYA\ЧУМА! - Plague!\Plague!_2020_S01-S02_HEVC- 10Bit_Н265_DD5.1_N.B_HD_1080_Rus\Plague!_2020_S01E01-E06_HEVC_DD5.1_N.B_HD_1080_Rus.mkv
Формат : Matroska
Версия формата : Version 4
Размер файла : 2,91 Гбайт
Продолжительность : 1 ч. 44 м.
Общий поток : 4 001 Кбит/сек
Название фильма : Plague! 2020 S01E01-E06 @ Nikolai.Baranov & PIRATIYA
Дата кодирования : UTC 2020-11-21 06:59:32
Программа кодирования : mkvmerge v51.0.0 ('I Wish') 64-bit
Библиотека кодирования : libebml v1.4.0 + libmatroska v1.6.2
Видео
Идентификатор : 1
Формат : HEVC
Формат/Информация : High Efficiency Video Coding
Профиль формата : Main 10@L5.2@Main
Идентификатор кодека : V_MPEGH/ISO/HEVC
Продолжительность : 1 ч. 44 м.
Битрейт : 3 615 Кбит/сек
Ширина : 1 920 пикселей
Высота : 1 080 пикселей
Соотношение сторон : 16:9
Режим частоты кадров : Постоянный
Частота кадров : 25,000 кадров/сек
Цветовое пространство : YUV
Субдискретизация насыщенности : 4:2:0
Битовая глубина : 10 бит
Бит/(Пиксели*Кадры) : 0.070
Размер потока : 2,63 Гбайт (90%)
Заголовок : Plague!_2020_S01E01-E06_HEVC_DD5.1_N.B_HD_1080_Rus
Язык : Russian
Default : Да
Forced : Нет
Цветовой диапазон : Full
Основные цвета : BT.709
Характеристики трансфера : BT.709
Коэффициенты матрицы : BT.709
Аудио
Идентификатор : 2
Формат : AC-3
Формат/Информация : Audio Coding 3
Коммерческое название : Dolby Digital
Идентификатор кодека : A_AC3
Продолжительность : 1 ч. 44 м.
Вид битрейта : Постоянный
Битрейт : 384 Кбит/сек
Каналы : 6 каналов
Channel layout : L R C LFE Ls Rs
Частота : 48,0 КГц
Частота кадров : 31,250 кадров/сек (1536 SPF)
Метод сжатия : С потерями
Размер потока : 286 Мбайт (10%)
Заголовок : Original@DD5.1 AC3 , 384 Kbps, 48.0 KHz, 6 ch
Язык : Russian
Service kind : Complete Main
Default : Да
Forced : Нет
Меню
00:00:00.000 : ru:Глава 01 / ru:Глава 01
--

MediaInfo 2Сезон

Общее
Уникальный идентификатор : 117215729446468395269104717556312148217 (0x582EEDA6FF1BB0D516FDD77232AF88F9)
Полное имя : D:\PIRATIYA\ЧУМА! - Plague!\Plague!_2020_S01-S02_HEVC- 10Bit_Н265_DD5.1_N.B_HD_1080_Rus\Plague!_2020_S02E01-E04_HEVC_DD5.1_N.B_HD_1080_Rus.mkv
Формат : Matroska
Версия формата : Version 4
Размер файла : 2,59 Гбайт
Продолжительность : 1 ч. 32 м.
Общий поток : 3 998 Кбит/сек
Название фильма : Plague! 2020 S02E01-E04 @ Nikolai.Baranov & PIRATIYA
Дата кодирования : UTC 2020-11-21 11:44:07
Программа кодирования : mkvmerge v51.0.0 ('I Wish') 64-bit
Библиотека кодирования : libebml v1.4.0 + libmatroska v1.6.2
Видео
Идентификатор : 1
Формат : HEVC
Формат/Информация : High Efficiency Video Coding
Профиль формата : Main 10@L5.2@Main
Идентификатор кодека : V_MPEGH/ISO/HEVC
Продолжительность : 1 ч. 32 м.
Битрейт : 3 612 Кбит/сек
Ширина : 1 920 пикселей
Высота : 1 080 пикселей
Соотношение сторон : 16:9
Режим частоты кадров : Постоянный
Частота кадров : 25,000 кадров/сек
Цветовое пространство : YUV
Субдискретизация насыщенности : 4:2:0
Битовая глубина : 10 бит
Бит/(Пиксели*Кадры) : 0.070
Размер потока : 2,34 Гбайт (90%)
Заголовок : Plague!_2020_S02E01-E04_HEVC_DD5.1_N.B_HD_1080_Rus
Язык : Russian
Default : Да
Forced : Нет
Цветовой диапазон : Full
Основные цвета : BT.709
Характеристики трансфера : BT.709
Коэффициенты матрицы : BT.709
Аудио
Идентификатор : 2
Формат : AC-3
Формат/Информация : Audio Coding 3
Коммерческое название : Dolby Digital
Идентификатор кодека : A_AC3
Продолжительность : 1 ч. 32 м.
Вид битрейта : Постоянный
Битрейт : 384 Кбит/сек
Каналы : 6 каналов
Channel layout : L R C LFE Ls Rs
Частота : 48,0 КГц
Частота кадров : 31,250 кадров/сек (1536 SPF)
Метод сжатия : С потерями
Размер потока : 255 Мбайт (10%)
Заголовок : Original@DD5.1 AC3 , 384 Kbps, 48.0 KHz, 6 ch
Язык : Russian
Service kind : Complete Main
Default : Да
Forced : Нет
Меню
00:00:00.000 : ru:Глава 01 / ru:Глава 01
--

Скриншоты

--
1Сезон
--
2Сезон
--Внимание! Раздача пополняется по мере выхода новых серий!--

Внимание! Раздача ведётся путём добавления новых серий!

Раздача ведётся путём добавления новых серий; при каждом добавлении создётся новый торрент.
Чтобы начать докачку новой серии, пользователям необходимо сделать следующее:
1. остановить скачивание,
2. удалить старый торрент у себя из клиента (старые серии удалять не надо),
3. скачать новый торрент и запустить его у себя в клиенте вместо старого, при этом указать клиенту путь в старую папку, куда и должно происходить скачивание новых серий.
Ваш клиент при этом должен произвести хеширование (проверку) старой папки (если не производит сам - помогите ему сделать это), и будет докачивать только те серии которых у вас ещё нет. Старые серии при этом не удаляются, а продолжают раздаваться!
Eсли вы уже удалили старые серии, то предотвратить повторную закачку старых серий можно, отжав галочку в соответсвующих местах при запуске нового торрента. По возможности, желательно не удалять старые серии как можно дольше, чтобы релизёр не столько продолжал раздавать старые серии, а смог сконцентрироваться на новых.
Совет для тех, кто не хочет ждать перехеширования:
Создайте ещё одну папку рядом с папкой сериала (рядом, а не в ней!!!). Каждую новую серию после удачной загрузки копируйте в новую папку так чтобы ваша основная папка всегда была пуста. Когда ваш новый торрент предложит вам закачать все файлы, выберете только последнюю. Для сидирования же укажите адрес новой папки.
Как закачать отдельный файл из торрента или докачать ранее пропущенные файлы торрента!

Как закачать отдельный файл

1. Открыть торрент
2. Снять галки с тех файлов торрента, которые мы не хотим закачивать. Оставляем только на нужных нам файлах (файле).
3. Нажать О.К.
В клиенте utorrent
Инструкция
1) Открыть торрент

2) Снять галки с тех файлов торрента, которые мы не хотим закачивать:
* либо вручную, снимая с каждого файла галку( скрин №1)
* либо, нажав кнопку "Снять метки (Select None)", сняв сразу со всех файлов(скрин №2)
№1

№2

Оставляем только на нужных нам файлах (файле).

3)Нажать О.К
-- -- ----Релиз от: Nikolai.Baranov & PIRATIYA . Поблагодарить:
ЯД: 410017546713876
-- -- -- --Время раздачи : 24/7---
Скачать

Скачать торрент! ЧУМА! Вторая волна / Plague! (Сезон 1-2 , Серия 1-10 из 14 ) ( Андрей Богатырёв) [2020, Комедия , WEB-DLRip - HEVC - 1080p]

Как скачивать? · Что такое торрент? · Рейтинг и ограничения

Сайт не распространяет и не хранит электронные версии произведений, а лишь предоставляет доступ к создаваемому пользователями каталогу ссылок на торрент-файлы, которые содержат только списки хеш-сумм

загрузка...

_________________

Легко быть оптимистом, когда судьба не валит с ног тяжелыми ударами, а лишь иногда легонько шлепает по заднице.
[Профиль] [ЛС]
Показать сообщения:    
Ответить на тему

Текущее время: Сегодня 17:10

Часовой пояс: GMT + 4



Вы не можете начинать темы
Вы не можете отвечать на сообщения
Вы не можете редактировать свои сообщения
Вы не можете удалять свои сообщения
Вы не можете голосовать в опросах
Вы не можете прикреплять файлы к сообщениям
Вы не можете скачивать файлы