Сестра Рэтчед / Ratched (Сезон 1 , Серия 1-8 из 8) (Райан Мёрфи, Майкл Аппендаль) [2020,Триллер, драма, криминал, детектив, экранизация,WEB-DLRip - HEVC 10bit - 1080p] [NewStudio+LostFilm+ BaibaKo+HDRezka Studio+Jaskier+ Eng]+[Subs Rus , ENG]

Ответить на тему
 
Автор Сообщение

Nikolai.Baranov ®

Пост Пост: #1 от 26-Сен-2020 13:38

[Цитировать]

---- ---- Сестра Рэтчед / Ratched (Сезон 1 , Серия 1-8 из 8) - Полный Комплект -- --Год выпуска: 2020
Выпущено: США , Fox 21 Television Studios, Furthur Films, Lighthouse Management & Media
Жанр: Триллер, драма, криминал, детектив, экранизация
Продолжительность:00:55:00
Сезон:1
Серия:1-8
Количество серий в сезоне: 8--Озвучка #1:Профессиональный многоголосый LostFilm - Русский
Озвучка # 2: Профессиональный многоголосый- HDRezka Studio - Русский
Озвучка # 3: Профессиональный многоголосый- BaibaKo - Русский
Озвучка # 4: Профессиональный многоголосый- NewStudio - Русский
Озвучка # 5: Профессиональный многоголосый- Jaskier - Русский
Озвучка # 6: Профессиональный многоголосый -Английский - Оригинал--Субтитры (UTF-8): вшитые
#1 - Русские - Russian (включены по умолчанию)
#2- Английские - English (SDH)
#3- Английские - English (Original)--Внешние:
#1 - Русские - Russian
#2- Английские - English (SDH)
#3- Английские - English (Original)
--Релиз Без Рекламы --MDB 7.5 --Режиссеры:
Райан Мёрфи, Майкл Аппендаль, Нельсон Крегг --В ролях: Сара Полсон, Джон Джон Брионес, Синтия Никсон, Джуди Дэвис, Шэрон Стоун, Харриет Сэнсом Харрис, Хантер Пэрриш, Аманда Пламмер, Кори Столл, Чарли Карвер, Элис Энглерт, Винсент Д`Онофрио-- 1947 год. Используя грязные махинации, Милдрет Рэтчед устраивается медсестрой в психиатрическую больницу. Новенькую с первого взгляда не взлюбила старшая медсестра Бакет, главврач уже повязан с Милдред соучастием в преступлении, и это только начало. Сестра Рэтчед развернёт в больнице и за её пределами свою подлую деятельность. Она будет использовать всевозможные уловки, манипуляции и шантаж, чтобы избавить от смертной казни своего брата - нового пациента лечебницы и опасного психопата, убившего нескольких человек.-- --Качество : WEB-DLRip - HEVC 10bit - 1080p
Формат: MKV
Видео кодек: H265
Видео: 3107 Кбит/сек,1920х864 , (2.222),в 23.976кадр/сек, HEVC (Main10@L4@Main)--Аудио Кодек:Аудио Кодек:AC3
Аудио #1: MVO LostFilm @DD5.1 AC3, 640 Kbps, 48.0 KHz, 6 ch- LostFilm - Русский
Аудио # 2: MVO HDRezka Studio @DD5.1 AC3, 384 Kbps, 48.0 KHz, 6 ch- HDRezka Studio - Русский
Аудио #3: MVO BaibaKo @DD5.1 AC3, 384 Kbps, 48.0 KHz, 6 ch- BaibaKo - Русский
Аудио #4: MVO NewStudio @DD5.1 AC3, 640 Kbps, 48.0 KHz, 6 ch - NewStudio - Русский
Аудио #5: MVO Jaskier @DD5.1 AC3, 384 Kbps, 48.0 KHz, 6 ch- Jaskier - Русский
Аудио #6: Original@DD5.1 E-AC3 , 768 Kbps, 48.0 KHz, 6 ch - English - Оригинал-

Доп. информация:

Звуковая дорожка сделана путем наложения чистого голоса озвучивателей на центральный канал оригинальной дорожки. Качество идентично звуковой дорожке.
--

Список эпизодов сезона


1 сезон 1 серия - Пилот - Pilot
1 сезон 2 серия - Нож для льда - Ice Pick
1 сезон 3 серия - Ангел милосердия - Angel of Mercy
1 сезон 4 серия - Ангел милосердия, часть вторая - Angel of Mercy: Part Two
1 сезон 5 серия - Танцы - The Dance
1 сезон 6 серия - Ничто не держит - Got No Strings
1 сезон 7 серия - Список предсмертных желаний - The Bucket List
1 сезон 8 серия - Милдред и Эдмунд - Mildred and Edmund
--

MediaInfo

Общее
Уникальный идентификатор : 35672432619255116513389361597972848828 (0x1AD642B7CCA40D7FB8738EAF1F3DA0BC)
Полное имя : E:\Baranov\Сестра Рэтчед - Ratched\Ratched_S01_2020_HEVC- 10Bit_Н265_DD5.1_N.B_HD_1080_3xRus_Eng\Ratched_S01E01_2020_HEVC_Н265_DD5.1_N.B_HD_1080_4xRus_Eng.mkv
Формат : Matroska
Версия формата : Version 4
Размер файла : 2,40 Гбайт
Продолжительность : 56 м. 55 с.
Общий поток : 6 028 Кбит/сек
Название фильма : Ratched S01E01 2020 @ Nikolai.Baranov & PIRATIYA
Дата кодирования : UTC 2020-09-29 10:56:50
Программа кодирования : mkvmerge v50.0.0 ('Awakenings') 64-bit
Библиотека кодирования : libebml v1.4.0 + libmatroska v1.6.2 / Lavf58.46.101
Видео
Идентификатор : 1
Формат : HEVC
Формат/Информация : High Efficiency Video Coding
Профиль формата : Main 10@L4@Main
Идентификатор кодека : V_MPEGH/ISO/HEVC
Продолжительность : 56 м. 55 с.
Битрейт : 3 107 Кбит/сек
Ширина : 1 920 пикселей
Высота : 864 пикселя
Соотношение сторон : 2,222
Режим частоты кадров : Постоянный
Частота кадров : 23,976 (24000/1001) кадра/сек
Цветовое пространство : YUV
Субдискретизация насыщенности : 4:2:0
Битовая глубина : 10 бит
Бит/(Пиксели*Кадры) : 0.078
Размер потока : 1,24 Гбайт (52%)
Заголовок : Ratched_S01E01_2020_HEVC_Н265_DD5.1_N.B_HD_1080_4xRus_Eng
Библиотека кодирования : x265 3.3+1-f94b0d32737d:[Linux][GCC 8.3.0][64 bit] 10bit
Настройки программы : cpuid=1111039 / frame-threads=3 / numa-pools=12 / wpp / no-pmode / no-pme / no-psnr / no-ssim / log-level=2 / input-csp=1 / input-res=1920x864 / interlace=0 / total-frames=0 / level-idc=0 / high-tier=1 / uhd-bd=0 / ref=3 / no-allow-non-conformance / no-repeat-headers / annexb / no-aud / no-hrd / info / hash=0 / no-temporal-layers / open-gop / min-keyint=23 / keyint=250 / gop-lookahead=0 / bframes=4 / b-adapt=2 / b-pyramid / bframe-bias=0 / rc-lookahead=20 / lookahead-slices=5 / scenecut=40 / hist-scenecut=0 / radl=0 / no-splice / no-intra-refresh / ctu=64 / min-cu-size=8 / no-rect / no-amp / max-tu-size=32 / tu-inter-depth=1 / tu-intra-depth=1 / limit-tu=0 / rdoq-level=0 / dynamic-rd=0.00 / no-ssim-rd / signhide / no-tskip / nr-intra=0 / nr-inter=0 / no-constrained-intra / strong-intra-smoothing / max-merge=3 / limit-refs=1 / no-limit-modes / me=1 / subme=2 / merange=57 / temporal-mvp / no-frame-dup / no-hme / weightp / no-weightb / no-analyze-src-pics / deblock=-3:-3 / sao / no-sao-non-deblock / rd=3 / selective-sao=4 / early-skip / rskip / no-fast-intra / no-tskip-fast / no-cu-lossless / b-intra / no-splitrd-skip / rdpenalty=0 / psy-rd=2.00 / psy-rdoq=0.00 / no-rd-refine / no-lossless / cbqpoffs=0 / crqpoffs=0 / rc=crf / crf=18.0 / qcomp=0.60 / qpstep=4 / stats-write=0 / stats-read=0 / vbv-maxrate=5000 / vbv-bufsize=10000 / vbv-init=0.9 / crf-max=0.0 / crf-min=0.0 / ipratio=1.40 / pbratio=1.30 / aq-mode=2 / aq-strength=1.00 / cutree / zone-count=0 / no-strict-cbr / qg-size=32 / no-rc-grain / qpmax=69 / qpmin=0 / no-const-vbv / sar=1 / overscan=0 / videoformat=5 / range=0 / colorprim=2 / transfer=2 / colormatrix=2 / chromaloc=0 / display-window=0 / cll=0,0 / min-luma=0 / max-luma=1023 / log2-max-poc-lsb=8 / vui-timing-info / vui-hrd-info / slices=1 / no-opt-qp-pps / no-opt-ref-list-length-pps / no-multi-pass-opt-rps / scenecut-bias=0.05 / hist-threshold=0.01 / no-opt-cu-delta-qp / no-aq-motion / no-hdr10 / no-hdr10-opt / no-dhdr10-opt / no-idr-recovery-sei / analysis-reuse-level=0 / analysis-save-reuse-level=0 / analysis-load-reuse-level=0 / scale-factor=0 / refine-intra=0 / refine-inter=0 / refine-mv=1 / refine-ctu-distortion=0 / no-limit-sao / ctu-info=0 / no-lowpass-dct / refine-analysis-type=0 / copy-pic=1 / max-ausize-factor=1.0 / no-dynamic-refine / no-single-sei / no-hevc-aq / no-svt / no-field / qp-adaptation-range=1.00 / no-scenecut-aware-qpconformance-window-offsets / right=0 / bottom=0
Язык : Russian
Default : Да
Forced : Нет
Цветовой диапазон : Limited
Аудио #1
Идентификатор : 3
Формат : AC-3
Формат/Информация : Audio Coding 3
Коммерческое название : Dolby Digital
Идентификатор кодека : A_AC3
Продолжительность : 55 м. 51 с.
Вид битрейта : Постоянный
Битрейт : 640 Кбит/сек
Каналы : 6 каналов
Channel layout : L R C LFE Ls Rs
Частота : 48,0 КГц
Частота кадров : 31,250 кадров/сек (1536 SPF)
Метод сжатия : С потерями
Размер потока : 256 Мбайт (10%)
Заголовок : MVO LostFilm @DD5.1 AC3, 640 Kbps, 48.0 KHz, 6 ch
Язык : Russian
Service kind : Complete Main
Default : Да
Forced : Нет
Аудио #2
Идентификатор : 4
Формат : AC-3
Формат/Информация : Audio Coding 3
Коммерческое название : Dolby Digital
Идентификатор кодека : A_AC3
Продолжительность : 55 м. 49 с.
Вид битрейта : Постоянный
Битрейт : 384 Кбит/сек
Каналы : 6 каналов
Channel layout : L R C LFE Ls Rs
Частота : 48,0 КГц
Частота кадров : 31,250 кадров/сек (1536 SPF)
Метод сжатия : С потерями
Размер потока : 153 Мбайт (6%)
Заголовок : MVO HDRezka Studio @DD5.1 AC3, 384 Kbps, 48.0 KHz, 6 ch
Язык : Russian
Service kind : Complete Main
Default : Нет
Forced : Нет
Аудио #3
Идентификатор : 5
Формат : AC-3
Формат/Информация : Audio Coding 3
Коммерческое название : Dolby Digital
Идентификатор кодека : A_AC3
Продолжительность : 56 м. 55 с.
Вид битрейта : Постоянный
Битрейт : 384 Кбит/сек
Каналы : 6 каналов
Channel layout : L R C LFE Ls Rs
Частота : 48,0 КГц
Частота кадров : 31,250 кадров/сек (1536 SPF)
Метод сжатия : С потерями
Размер потока : 156 Мбайт (6%)
Заголовок : MVO BaibaKo @DD5.1 AC3, 384 Kbps, 48.0 KHz, 6 ch
Язык : Russian
Service kind : Complete Main
Default : Нет
Forced : Нет
Аудио #4
Идентификатор : 6
Формат : E-AC-3 JOC
Формат/Информация : Enhanced AC-3 with Joint Object Coding
Коммерческое название : Dolby Digital Plus with Dolby Atmos
Идентификатор кодека : A_EAC3
Продолжительность : 56 м. 55 с.
Вид битрейта : Постоянный
Битрейт : 768 Кбит/сек
Каналы : 6 каналов
Channel layout : L R C LFE Ls Rs
Частота : 48,0 КГц
Частота кадров : 31,250 кадров/сек (1536 SPF)
Метод сжатия : С потерями
Размер потока : 313 Мбайт (13%)
Заголовок : Original@DD5.1 E-AC3 , 768 Kbps, 48.0 KHz, 6 ch
Язык : English
Service kind : Complete Main
Default : Нет
Forced : Нет
Complexity index : 16
Number of dynamic objects : 15
Bed channel count : 1 канал
Bed channel configuration : LFE
Аудио #5
Идентификатор : 9
Формат : AC-3
Формат/Информация : Audio Coding 3
Коммерческое название : Dolby Digital
Идентификатор кодека : A_AC3
Продолжительность : 55 м. 51 с.
Вид битрейта : Постоянный
Битрейт : 384 Кбит/сек
Каналы : 6 каналов
Channel layout : L R C LFE Ls Rs
Частота : 48,0 КГц
Частота кадров : 31,250 кадров/сек (1536 SPF)
Метод сжатия : С потерями
Размер потока : 153 Мбайт (6%)
Заголовок : MVO NewStudio @DD5.1 AC3, 384 Kbps, 48.0 KHz, 6 ch
Язык : Russian
Service kind : Complete Main
Default : Нет
Forced : Нет
Аудио #6
Идентификатор : 10
Формат : AC-3
Формат/Информация : Audio Coding 3
Коммерческое название : Dolby Digital
Идентификатор кодека : A_AC3
Продолжительность : 56 м. 55 с.
Вид битрейта : Постоянный
Битрейт : 384 Кбит/сек
Каналы : 6 каналов
Channel layout : L R C LFE Ls Rs
Частота : 48,0 КГц
Частота кадров : 31,250 кадров/сек (1536 SPF)
Метод сжатия : С потерями
Размер потока : 156 Мбайт (6%)
Заголовок : MVO Jaskier @DD5.1 AC3, 384 Kbps, 48.0 KHz, 6 ch
Язык : Russian
Service kind : Complete Main
Default : Нет
Forced : Нет
Текст #1
Идентификатор : 2
Формат : UTF-8
Идентификатор кодека : S_TEXT/UTF8
Идентификатор кодека/Информация : UTF-8 Plain Text
Продолжительность : 55 м. 30 с.
Битрейт : 79 бит/сек
Count of elements : 530
Размер потока : 32,4 Кбайт (0%)
Заголовок : Пилот-Russian
Язык : Russian
Default : Да
Forced : Нет
Текст #2
Идентификатор : 7
Формат : UTF-8
Идентификатор кодека : S_TEXT/UTF8
Идентификатор кодека/Информация : UTF-8 Plain Text
Продолжительность : 54 м. 14 с.
Битрейт : 57 бит/сек
Count of elements : 693
Размер потока : 22,8 Кбайт (0%)
Заголовок : Pilot-Original - SDH
Язык : English
Default : Нет
Forced : Нет
Текст #3
Идентификатор : 8
Формат : UTF-8
Идентификатор кодека : S_TEXT/UTF8
Идентификатор кодека/Информация : UTF-8 Plain Text
Продолжительность : 53 м. 46 с.
Битрейт : 52 бит/сек
Count of elements : 611
Размер потока : 20,7 Кбайт (0%)
Заголовок : Pilot-Original
Язык : English
Default : Нет
Forced : Нет
Меню
00:00:00.000 : ru:Глава 01 / ru:Глава 01 / ru:Глава 01 / ru:Глава 01 / ru:Глава 01 / ru:Глава 01 / ru:Глава 01 / ru:Глава 01 / ru:Глава 01 / ru:Глава 01
--

Скриншоты

---- --

Как закачать отдельный файл

1. Открыть торрент
2. Снять галки с тех файлов торрента, которые мы не хотим закачивать. Оставляем только на нужных нам файлах (файле).
3. Нажать О.К.
В клиенте utorrent
Инструкция
1) Открыть торрент

2) Снять галки с тех файлов торрента, которые мы не хотим закачивать:
* либо вручную, снимая с каждого файла галку( скрин №1)
* либо, нажав кнопку "Снять метки (Select None)", сняв сразу со всех файлов(скрин №2)
№1

№2

Оставляем только на нужных нам файлах (файле).

3)Нажать О.К
-- -- --Внимание!!! 03.10. 2020. РАЗДАЧА ОБНОВЛЕНА. ДОБАВЛЕНА -7- 8 - СЕРИЯ . Финал Сезона . ОБНОВИТЕ ТОРЕНТ ФАЙЛ. ПРИЯТНОГО ПРОСМОТРА . Поблагодарить:
ЯД: 410017546713876
--Релиз от: Nikolai.Baranov & PIRATIYA -- -- -- --Время раздачи : 24/7---
Скачать

Скачать торрент! Сестра Рэтчед / Ratched (Сезон 1 , Серия 1-8 из 8) (Райан Мёрфи, Майкл Аппендаль) [2020,Триллер, драма, криминал, детектив, экранизация,WEB-DLRip - HEVC 10bit - 1080p] [NewStudio+LostFilm+ BaibaKo+HDRezka Studio+Jaskier+ Eng]+[Subs Rus , ENG]

Как скачивать? · Что такое торрент? · Рейтинг и ограничения

Сайт не распространяет и не хранит электронные версии произведений, а лишь предоставляет доступ к создаваемому пользователями каталогу ссылок на торрент-файлы, которые содержат только списки хеш-сумм

 
Показать сообщения:    
Ответить на тему

Текущее время: Сегодня 13:02

Часовой пояс: GMT + 4



Вы не можете начинать темы
Вы не можете отвечать на сообщения
Вы не можете редактировать свои сообщения
Вы не можете удалять свои сообщения
Вы не можете голосовать в опросах
Вы не можете прикреплять файлы к сообщениям
Вы не можете скачивать файлы