Хемлок Гроув / Hemlock Grove (Сезон 1-3 , Серия 1- 33 из 33) (Деран Сарафян, Т.Дж. Скотт) [2013,Триллер, ужасы, вампиры, экранизация,BDRip - HEVC 10bit - 1080p] [LostFilm+NewStudio+Eng]+[Subs Rus , ENG]

Ответить на тему
 
Автор Сообщение

Nikolai.Baranov ®

Пост Пост: #1 от 27-Авг-2020 18:34

[Цитировать]

---- -- Хемлок Гроув / Hemlock Grove (Сезон 1-3 , Серия 1- 33 из 33) - Полный Комплект --Год выпуска: 2013 -2015
Выпущено: США , Gaumont International Television, Mad Hatter Entertainment, Strike Entertainment
Жанр: Триллер, ужасы, вампиры, экранизация
Продолжительность: 00:46:00
Сезон:1-3[ 1- 3
Серия: 1- 33
Количество серий в сезоне: 33--Озвучка #1: Профессиональный многоголосый - LostFilm - Русский
Озвучка 2: Профессиональный многоголосый - NewStudio - Русский
Озвучка #3: Профессиональный многоголосый -Английский - Оригинал--Субтитры (UTF-8): вшитые
#1 - Русские (включены по умолчанию)
#2 - English (SDH)
#3 - English (Original)--Внешние:
#1 - Русские
#2 - English (SDH)
#3 - English (Original)
--Релиз Без Рекламы --MDB 7.1 --Режиссеры:
Деран Сарафян, Т.Дж. Скотт --В ролях: Фамке Янссен, Пенелопа Митчелл, Фрея Тингли, Лили Тейлор, Билл Скарсгард, Лэндон Либуарон, Дугрей Скотт, Николь Буавен, Аарон Дуглас, Лори Фортье, Мерседес Де Ла Зерда --
Хелмок Гроу – маленький провинциальный городок, много лет назад построенный вокруг сталелитейного завода Годфри. Как и во всяком маленьком городке, в Хелмок Гроу все друг друга знают. И когда в городе находят искалеченное тело убитой девушки, люди начинают подозревать друг друга. Проблема заключается еще и в том, что тело не просто искалечено, на нем явные следы укусов. По городу начинают поползти слухи о том, что из биотехнологической лаборатории «Белая Башня», которая принадлежит бывшим владельцам завода и находится на его территории, сбежал какой-то монстр. Другие подозревают чужака-цыгана Питера, который появился в городе незадолго до убийства и не однократно хвастался тем, что является оборотнем. Впрочем, есть и третий подозреваемый – это отпрыск самой богатой семьи в городе Роман Годфри. Обоим парням не нравится то, что их подозревают в столь зверском убийстве, и они решают сами провести расследование и узнать истину. Но в ходе расследования им предстоит узнать немало тайн, которые хранит этот город, некоторые из которых напрямую касаются их самих. -- --

Тех. Данные:

Качество : BDRip - HEVC 10bit - 1080p - Сезон 1
Формат: MKV
Видео кодек: H265
Видео: 4651 Кбит/сек,1920х1080 , (16.9),в 23.976кадр/сек, HEVC (Main10@L5.1@Main)--Аудио Кодек:AC3
Аудио #1: MVO LostFilm @ DD5.1 AC3, 640 Kbps, 48.0 KHz, 6 ch - LostFilm - Русский
Аудио #2: MVO NewStudio @DD5.1 AC3, 384 Kbps, 48.0 KHz, 6 ch - NewStudio - Русский
Аудио #3: Original@DD5.1 AC3, 640 Kbps, 48.0 KHz, 6 ch - English - Оригинал--Качество : WEB-DLRip - HEVC 10bit - 1080p - Сезон 2 - 3
Формат: MKV
Видео кодек: H265
Видео: 4651 Кбит/сек,1920х1080 , (16.9),в 23.976кадр/сек, HEVC (Main10@L5.1@Main)--Аудио Кодек:AC3
Аудио #1: MVO LostFilm @ DD5.1 AC3, 640 Kbps, 48.0 KHz, 6 ch - LostFilm - Русский
Аудио #2: MVO NewStudio @DD5.1 AC3, 384 Kbps, 48.0 KHz, 6 ch - NewStudio - Русский
Аудио #3: Original@DD5.1 AC3, 640 Kbps, 48.0 KHz, 6 ch - English - Оригинал
-

Доп. информация:

Звуковая дорожка сделана путем наложения чистого голоса озвучивателей на центральный канал оригинальной дорожки. Качество идентично звуковой дорожке.
--

Список эпизодов сезона

= 1 Сезон
1 сезон 1 серия - Медуза в небе - Jellyfish in the Sky
1 сезон 2 серия - Ангел - The Angel
1 сезон 3 серия - Орден Дракона - The Order of the Dragon
1 сезон 4 серия - Бестактность - In Poor Taste
1 сезон 5 серия - Привет, красавчик - Hello, Handsome
1 сезон 6 серия - Горнило - The Crucible
1 сезон 7 серия - Степень отклонения - Measure of Disorder
1 сезон 8 серия - Катабасис - Catabasis
1 сезон 9 серия - То, без чего может жить Питер - What Peter Can Live Without
1 сезон 10 серия - Чего хочет Бог - What God Wants
1 сезон 11 серия - Цена - The Price
1 сезон 12 серия - Дети ночи - Children of the Night
1 сезон 13 серия - Рождение - Birth

= 2 Сезон
2 сезон 1 серия - Кровяное давление - Blood Pressure
2 сезон 2 серия - Пропавшая сестра - Gone Sis
2 сезон 3 серия - Плохая Луна - Luna Rea
2 сезон 4 серия - Телесные жидкости - Bodily Fluids
2 сезон 5 серия - Толкователь снов для игры в числа от Хемлока Диего - Hemlock Diego's Policy Player's Dream Book
2 сезон 6 серия - Такие жуткие вещи - Such Dire Stuff
2 сезон 7 серия - Потерянное поколение - Lost Generation
2 сезон 8 серия - Единорог - Unicorn
2 сезон 9 серия - Ферротипы - Tintypes
2 сезон 10 серия - Демоны и Сириус - Demons and the Dogstar

= 3 Сезон
3 сезон 1 серия - Место падения - A Place to Fall
3 сезон 2 серия - Души на льду - Souls on Ice
3 сезон 3 серия - Дом в лесу - The House in the Woods
3 сезон 4 серия - Каждый зверь - Every Beast
3 сезон 5 серия - Мальчик в ящике - Boy in the Box
3 сезон 6 серия - Медальон - Pendant
3 сезон 7 серия - Все святые - Todos Santos
3 сезон 8 серия - Страшная ночь в последнее зимнее полнолуние - Dire Night on the Worm Moon
3 сезон 9 серия - Дамаск - Damascus
3 сезон 10 серия - Песня Брайана - Brian's Song
--

MediaInfo 1Сезон

Общее
Уникальный идентификатор : 305288948831309492565280762639733457140 (0xE5AC834876F08223BA804037D7B780F4)
Полное имя : F:\Nikolai.Baranov & PIRATIYA\Хемлок Гроув - Hemlock Grove\Hemlock_Grove_S01_HEVC_Н265_DD5.1_N.B_BD_1080_2xRus_Eng\Hemlock_Grove_S01E01_HEVC_Н265_DD5.1_N.B_HD_1080_2xRus_Eng.mkv
Формат : Matroska
Версия формата : Version 4
Размер файла : 2,04 Гбайт
Продолжительность : 46 м. 10 с.
Общий поток : 6 318 Кбит/сек
Название фильма : Hemlock Grove 2013 S01E01 @ Nikolai.Baranov & PIRATIYA
Дата кодирования : UTC 2020-08-24 10:28:20
Программа кодирования : mkvmerge v49.0.0 ('Sick Of Losing Soulmates') 64-bit
Библиотека кодирования : libebml v1.4.0 + libmatroska v1.6.1
Видео
Идентификатор : 1
Формат : HEVC
Формат/Информация : High Efficiency Video Coding
Профиль формата : Main 10@L5.1@Main
Идентификатор кодека : V_MPEGH/ISO/HEVC
Продолжительность : 46 м. 10 с.
Битрейт : 4 651 Кбит/сек
Ширина : 1 920 пикселей
Высота : 1 080 пикселей
Соотношение сторон : 16:9
Режим частоты кадров : Постоянный
Частота кадров : 23,976 (24000/1001) кадра/сек
Цветовое пространство : YUV
Субдискретизация насыщенности : 4:2:0
Битовая глубина : 10 бит
Бит/(Пиксели*Кадры) : 0.094
Размер потока : 1,50 Гбайт (74%)
Заголовок : Hemlock_Grove_S01E01_HEVC_Н265_DD5.1_N.B_HD_1080_2xRus_Eng
Язык : Russian
Default : Да
Forced : Нет
Цветовой диапазон : Full
Основные цвета : BT.709
Характеристики трансфера : BT.709
Коэффициенты матрицы : BT.709
Аудио #1
Идентификатор : 3
Формат : AC-3
Формат/Информация : Audio Coding 3
Коммерческое название : Dolby Digital
Идентификатор кодека : A_AC3
Продолжительность : 46 м. 10 с.
Вид битрейта : Постоянный
Битрейт : 640 Кбит/сек
Каналы : 6 каналов
Channel layout : L R C LFE Ls Rs
Частота : 48,0 КГц
Частота кадров : 31,250 кадров/сек (1536 SPF)
Метод сжатия : С потерями
Размер потока : 211 Мбайт (10%)
Заголовок : MVO LostFilm @DD5.1 AC3, 640 Kbps, 48.0 KHz, 6 ch
Язык : Russian
Service kind : Complete Main
Default : Да
Forced : Нет
Аудио #2
Идентификатор : 4
Формат : AC-3
Формат/Информация : Audio Coding 3
Коммерческое название : Dolby Digital
Идентификатор кодека : A_AC3
Продолжительность : 46 м. 10 с.
Вид битрейта : Постоянный
Битрейт : 384 Кбит/сек
Каналы : 6 каналов
Channel layout : L R C LFE Ls Rs
Частота : 48,0 КГц
Частота кадров : 31,250 кадров/сек (1536 SPF)
Метод сжатия : С потерями
Размер потока : 127 Мбайт (6%)
Заголовок : MVO NewStudio @DD5.1 AC3, 384 Kbps, 48.0 KHz, 6 ch
Язык : Russian
Service kind : Complete Main
Default : Нет
Forced : Нет
Аудио #3
Идентификатор : 5
Формат : AC-3
Формат/Информация : Audio Coding 3
Коммерческое название : Dolby Digital
Идентификатор кодека : A_AC3
Продолжительность : 46 м. 10 с.
Вид битрейта : Постоянный
Битрейт : 640 Кбит/сек
Каналы : 6 каналов
Channel layout : L R C LFE Ls Rs
Частота : 48,0 КГц
Частота кадров : 31,250 кадров/сек (1536 SPF)
Метод сжатия : С потерями
Размер потока : 211 Мбайт (10%)
Заголовок : Original@DD5.1 AC3 , 640 Kbps, 48.0 KHz, 6 ch
Язык : English
Service kind : Complete Main
Default : Нет
Forced : Нет
Текст #1
Идентификатор : 2
Формат : UTF-8
Идентификатор кодека : S_TEXT/UTF8
Идентификатор кодека/Информация : UTF-8 Plain Text
Продолжительность : 44 м. 0 с.
Битрейт : 76 бит/сек
Count of elements : 451
Размер потока : 24,8 Кбайт (0%)
Заголовок : Медуза в небе-Russian
Язык : Russian
Default : Да
Forced : Нет
Текст #2
Идентификатор : 6
Формат : UTF-8
Идентификатор кодека : S_TEXT/UTF8
Идентификатор кодека/Информация : UTF-8 Plain Text
Продолжительность : 44 м. 34 с.
Битрейт : 48 бит/сек
Count of elements : 506
Размер потока : 15,8 Кбайт (0%)
Заголовок : Jellyfish in the Sky-Original - SDH
Язык : English
Default : Нет
Forced : Нет
Текст #3
Идентификатор : 7
Формат : UTF-8
Идентификатор кодека : S_TEXT/UTF8
Идентификатор кодека/Информация : UTF-8 Plain Text
Продолжительность : 44 м. 0 с.
Битрейт : 45 бит/сек
Count of elements : 453
Размер потока : 14,7 Кбайт (0%)
Заголовок : Jellyfish in the Sky-Original
Язык : English
Default : Нет
Forced : Нет
Меню
00:00:00.000 : en:00:00:00.000
00:07:12.974 : en:00:07:12.974
00:17:05.900 : en:00:17:05.900
00:23:37.708 : en:00:23:37.708
00:33:45.941 : en:00:33:45.941
--

MediaInfo 2Сезон

Общее
Уникальный идентификатор : 150789947366079278106563503431591212128 (0x7171166609F84260DD91C9CADDDD3460)
Полное имя : F:\Хемлок Гроув - Hemlock Grove\Hemlock_Grove_S01-S02_HEVC_Н265_DD5.1_N.B_BD_1080_2xRus_Eng\S02\Hemlock_Grove_S02E01_HEVC_Н265_DD5.1_N.B_HD_1080_2xRus_Eng.mkv
Формат : Matroska
Версия формата : Version 4
Размер файла : 2,26 Гбайт
Продолжительность : 51 м. 8 с.
Общий поток : 6 317 Кбит/сек
Название фильма : Hemlock Grove 2014 S02E01 @ Nikolai.Baranov & PIRATIYA
Дата кодирования : UTC 2020-09-28 10:19:11
Программа кодирования : mkvmerge v50.0.0 ('Awakenings') 64-bit
Библиотека кодирования : libebml v1.4.0 + libmatroska v1.6.2
Видео
Идентификатор : 1
Формат : HEVC
Формат/Информация : High Efficiency Video Coding
Профиль формата : Main 10@L5.1@Main
Идентификатор кодека : V_MPEGH/ISO/HEVC
Продолжительность : 51 м. 8 с.
Битрейт : 4 651 Кбит/сек
Ширина : 1 920 пикселей
Высота : 1 080 пикселей
Соотношение сторон : 16:9
Режим частоты кадров : Постоянный
Частота кадров : 23,976 (24000/1001) кадра/сек
Цветовое пространство : YUV
Субдискретизация насыщенности : 4:2:0
Битовая глубина : 10 бит
Бит/(Пиксели*Кадры) : 0.094
Размер потока : 1,66 Гбайт (74%)
Заголовок : Hemlock_Grove_S02E01_HEVC_Н265_DD5.1_N.B_HD_1080_2xRus_Eng
Язык : Russian
Default : Да
Forced : Нет
Цветовой диапазон : Full
Основные цвета : BT.709
Характеристики трансфера : BT.709
Коэффициенты матрицы : BT.709
Аудио #1
Идентификатор : 3
Формат : AC-3
Формат/Информация : Audio Coding 3
Коммерческое название : Dolby Digital
Идентификатор кодека : A_AC3
Продолжительность : 51 м. 8 с.
Вид битрейта : Постоянный
Битрейт : 640 Кбит/сек
Каналы : 6 каналов
Channel layout : L R C LFE Ls Rs
Частота : 48,0 КГц
Частота кадров : 31,250 кадров/сек (1536 SPF)
Метод сжатия : С потерями
Размер потока : 234 Мбайт (10%)
Заголовок : MVO LostFilm @DD5.1 AC3, 640 Kbps, 48.0 KHz, 6 ch
Язык : Russian
Service kind : Complete Main
Default : Да
Forced : Нет
Аудио #2
Идентификатор : 4
Формат : AC-3
Формат/Информация : Audio Coding 3
Коммерческое название : Dolby Digital
Идентификатор кодека : A_AC3
Продолжительность : 51 м. 2 с.
Вид битрейта : Постоянный
Битрейт : 384 Кбит/сек
Каналы : 6 каналов
Channel layout : L R C LFE Ls Rs
Частота : 48,0 КГц
Частота кадров : 31,250 кадров/сек (1536 SPF)
Метод сжатия : С потерями
Размер потока : 140 Мбайт (6%)
Заголовок : MVO NewStudio @DD5.1 AC3, 384 Kbps, 48.0 KHz, 6 ch
Язык : Russian
Service kind : Complete Main
Default : Нет
Forced : Нет
Аудио #3
Идентификатор : 5
Формат : AC-3
Формат/Информация : Audio Coding 3
Коммерческое название : Dolby Digital
Идентификатор кодека : A_AC3
Продолжительность : 51 м. 8 с.
Вид битрейта : Постоянный
Битрейт : 640 Кбит/сек
Каналы : 6 каналов
Channel layout : L R C LFE Ls Rs
Частота : 48,0 КГц
Частота кадров : 31,250 кадров/сек (1536 SPF)
Метод сжатия : С потерями
Размер потока : 234 Мбайт (10%)
Заголовок : Original@DD5.1 AC3 , 640 Kbps, 48.0 KHz, 6 ch
Язык : English
Service kind : Complete Main
Default : Нет
Forced : Нет
Текст #1
Идентификатор : 2
Формат : UTF-8
Идентификатор кодека : S_TEXT/UTF8
Идентификатор кодека/Информация : UTF-8 Plain Text
Продолжительность : 45 м. 20 с.
Битрейт : 84 бит/сек
Count of elements : 481
Размер потока : 28,1 Кбайт (0%)
Заголовок : Кровяное давление-Russian
Язык : Russian
Default : Да
Forced : Нет
Текст #2
Идентификатор : 6
Формат : UTF-8
Идентификатор кодека : S_TEXT/UTF8
Идентификатор кодека/Информация : UTF-8 Plain Text
Продолжительность : 50 м. 51 с.
Битрейт : 49 бит/сек
Count of elements : 573
Размер потока : 18,3 Кбайт (0%)
Заголовок : Blood Pressure-Original - SDH
Язык : English
Default : Нет
Forced : Нет
Текст #3
Идентификатор : 7
Формат : UTF-8
Идентификатор кодека : S_TEXT/UTF8
Идентификатор кодека/Информация : UTF-8 Plain Text
Продолжительность : 45 м. 47 с.
Битрейт : 49 бит/сек
Count of elements : 501
Размер потока : 16,8 Кбайт (0%)
Заголовок : Blood Pressure-Original
Язык : English
Default : Нет
Forced : Нет
Меню
00:00:00.000 : ru:Глава 01 / ru:Глава 01 / ru:Глава 01 / ru:Глава 01 / ru:Глава 01 / ru:Глава 01 / ru:Глава 01
--

MediaInfo 3 Сезон

Общее
Уникальный идентификатор : 166999874535225576251570496490495770206 (0x7DA301832996A8F85F4AB52AF5A77E5E)
Полное имя : F:\Хемлок Гроув - Hemlock Grove\Hemlock_Grove_S01-S03_HEVC_Н265_DD5.1_N.B_BD_1080_2xRus_Eng\S03\Hemlock_Grove_S03E01_HEVC_Н265_DD5.1_N.B_HD_1080_2xRus_Eng.mkv
Формат : Matroska
Версия формата : Version 4
Размер файла : 2,51 Гбайт
Продолжительность : 57 м. 6 с.
Общий поток : 6 294 Кбит/сек
Название фильма : Hemlock Grove 2015 S03E01 @ Nikolai.Baranov & PIRATIYA
Дата кодирования : UTC 2020-10-13 06:10:39
Программа кодирования : mkvmerge v51.0.0 ('I Wish') 64-bit
Библиотека кодирования : libebml v1.4.0 + libmatroska v1.6.2
Видео
Идентификатор : 1
Формат : HEVC
Формат/Информация : High Efficiency Video Coding
Профиль формата : Main 10@L5.1@Main
Идентификатор кодека : V_MPEGH/ISO/HEVC
Продолжительность : 57 м. 5 с.
Битрейт : 4 627 Кбит/сек
Ширина : 1 920 пикселей
Высота : 1 080 пикселей
Соотношение сторон : 16:9
Режим частоты кадров : Постоянный
Частота кадров : 23,976 (24000/1001) кадра/сек
Цветовое пространство : YUV
Субдискретизация насыщенности : 4:2:0
Битовая глубина : 10 бит
Бит/(Пиксели*Кадры) : 0.093
Размер потока : 1,85 Гбайт (74%)
Заголовок : Hemlock_Grove_S03E01_HEVC_Н265_DD5.1_N.B_HD_1080_2xRus_Eng
Язык : Russian
Default : Да
Forced : Нет
Цветовой диапазон : Full
Основные цвета : BT.709
Характеристики трансфера : BT.709
Коэффициенты матрицы : BT.709
Аудио #1
Идентификатор : 3
Формат : AC-3
Формат/Информация : Audio Coding 3
Коммерческое название : Dolby Digital
Идентификатор кодека : A_AC3
Продолжительность : 57 м. 5 с.
Вид битрейта : Постоянный
Битрейт : 640 Кбит/сек
Каналы : 6 каналов
Channel layout : L R C LFE Ls Rs
Частота : 48,0 КГц
Частота кадров : 31,250 кадров/сек (1536 SPF)
Метод сжатия : С потерями
Размер потока : 261 Мбайт (10%)
Заголовок : MVO LostFilm @DD5.1 AC3, 640 Kbps, 48.0 KHz, 6 ch
Язык : Russian
Service kind : Complete Main
Default : Да
Forced : Нет
Аудио #2
Идентификатор : 4
Формат : AC-3
Формат/Информация : Audio Coding 3
Коммерческое название : Dolby Digital
Идентификатор кодека : A_AC3
Продолжительность : 57 м. 5 с.
Вид битрейта : Постоянный
Битрейт : 384 Кбит/сек
Каналы : 6 каналов
Channel layout : L R C LFE Ls Rs
Частота : 48,0 КГц
Частота кадров : 31,250 кадров/сек (1536 SPF)
Метод сжатия : С потерями
Размер потока : 157 Мбайт (6%)
Заголовок : MVO NewStudio @DD5.1 AC3, 384 Kbps, 48.0 KHz, 6 ch
Язык : Russian
Service kind : Complete Main
Default : Нет
Forced : Нет
Аудио #3
Идентификатор : 5
Формат : AC-3
Формат/Информация : Audio Coding 3
Коммерческое название : Dolby Digital
Идентификатор кодека : A_AC3
Продолжительность : 57 м. 6 с.
Вид битрейта : Постоянный
Битрейт : 640 Кбит/сек
Каналы : 6 каналов
Channel layout : L R C LFE Ls Rs
Частота : 48,0 КГц
Частота кадров : 31,250 кадров/сек (1536 SPF)
Метод сжатия : С потерями
Размер потока : 261 Мбайт (10%)
Заголовок : Original@DD5.1 AC3 , 640 Kbps, 48.0 KHz, 6 ch
Язык : English
Service kind : Complete Main
Default : Нет
Forced : Нет
Текст #1
Идентификатор : 2
Формат : UTF-8
Идентификатор кодека : S_TEXT/UTF8
Идентификатор кодека/Информация : UTF-8 Plain Text
Продолжительность : 56 м. 1 с.
Битрейт : 104 бит/сек
Count of elements : 701
Размер потока : 42,9 Кбайт (0%)
Заголовок : Место падения-Russian
Язык : Russian
Default : Да
Forced : Нет
Текст #2
Идентификатор : 6
Формат : UTF-8
Идентификатор кодека : S_TEXT/UTF8
Идентификатор кодека/Информация : UTF-8 Plain Text
Продолжительность : 56 м. 44 с.
Битрейт : 68 бит/сек
Count of elements : 821
Размер потока : 28,6 Кбайт (0%)
Заголовок : A Place to Fall-Original - SDH
Язык : English
Default : Нет
Forced : Нет
Текст #3
Идентификатор : 7
Формат : UTF-8
Идентификатор кодека : S_TEXT/UTF8
Идентификатор кодека/Информация : UTF-8 Plain Text
Продолжительность : 56 м. 30 с.
Битрейт : 65 бит/сек
Count of elements : 759
Размер потока : 26,9 Кбайт (0%)
Заголовок : A Place to Fall-Original
Язык : English
Default : Нет
Forced : Нет
Меню
00:00:00.000 : ru:Глава 01 / ru:Глава 01 / ru:Глава 01 / ru:Глава 01 / ru:Глава 01 / ru:Глава 01 / ru:Глава 01
--

Скриншоты

Сезон 1

Сезон 2

Сезон 3
--
1Сезон
--
2Сезон
--
3Сезон
--

Как закачать отдельный файл

1. Открыть торрент
2. Снять галки с тех файлов торрента, которые мы не хотим закачивать. Оставляем только на нужных нам файлах (файле).
3. Нажать О.К.
В клиенте utorrent
Инструкция
1) Открыть торрент

2) Снять галки с тех файлов торрента, которые мы не хотим закачивать:
* либо вручную, снимая с каждого файла галку( скрин №1)
* либо, нажав кнопку "Снять метки (Select None)", сняв сразу со всех файлов(скрин №2)
№1

№2

Оставляем только на нужных нам файлах (файле).

3)Нажать О.К
-- -- --Внимание!!! 02.11. 2020. РАЗДАЧА ОБНОВЛЕНА. ДОБАВЛЕНА - 9 -10- СЕРИЯ 3 СЕЗОНА . ФИНАЛ СЕРИАЛА . ОБНОВИТЕ ТОРЕНТ ФАЙЛ. ПРИЯТНОГО ПРОСМОТРА . Поблагодарить:
ЯД: 410017546713876
--Релиз от: Nikolai.Baranov & PIRATIYA -- -- -- --Время раздачи : 24/7---
Скачать

Скачать торрент! Хемлок Гроув / Hemlock Grove (Сезон 1-3 , Серия 1- 33 из 33) (Деран Сарафян, Т.Дж. Скотт) [2013,Триллер, ужасы, вампиры, экранизация,BDRip - HEVC 10bit - 1080p] [LostFilm+NewStudio+Eng]+[Subs Rus , ENG]

Как скачивать? · Что такое торрент? · Рейтинг и ограничения

Сайт не распространяет и не хранит электронные версии произведений, а лишь предоставляет доступ к создаваемому пользователями каталогу ссылок на торрент-файлы, которые содержат только списки хеш-сумм

 
Показать сообщения:    
Ответить на тему

Текущее время: Сегодня 21:20

Часовой пояс: GMT + 4



Вы не можете начинать темы
Вы не можете отвечать на сообщения
Вы не можете редактировать свои сообщения
Вы не можете удалять свои сообщения
Вы не можете голосовать в опросах
Вы не можете прикреплять файлы к сообщениям
Вы не можете скачивать файлы